<?xml version="1.0" standalone="no"?>
<!DOCTYPE svg PUBLIC "-//W3C//DTD SVG 1.1//EN" "http://www.w3.org/Graphics/SVG/1.1/DTD/svg11.dtd" >
<svg>
<metadata>
Created by FontForge 20090914 at Wed Nov 30 10:42:47 2022
 By www-data
Copyright 2021 The Red Hat Project Authors (https://github.com/RedHatOfficial/RedHatFont)
</metadata>
<defs>
<font id="RedHatDisplay-SemiBold" horiz-adv-x="600" >
  <font-face 
    font-family="Red Hat Display SemiBold"
    font-weight="600"
    font-stretch="normal"
    units-per-em="1000"
    panose-1="2 1 3 3 4 2 1 6 3 3"
    ascent="800"
    descent="-200"
    x-height="508.999"
    cap-height="700"
    bbox="-70.001 -273.001 1086 1005"
    underline-thickness="100"
    underline-position="-150"
    unicode-range="U+0020-U+FFFD"
  />
<missing-glyph horiz-adv-x="514" 
d="M60 -100v850h394v-850h-394z" />
    <glyph glyph-name=".notdef" horiz-adv-x="514" 
d="M60 -100v850h394v-850h-394z" />
    <glyph glyph-name="space" unicode=" " horiz-adv-x="209" 
 />
    <glyph glyph-name="exclam" unicode="!" horiz-adv-x="216" 
d="M68 200l-12 505h103l-12 -505h-79zM108 -7c-17.333 0 -32.333 6.16699 -45 18.5s-19 27.166 -19 44.499s6.33301 32.166 19 44.499s27.667 18.5 45 18.5s32.166 -6.16699 44.499 -18.5s18.5 -27.166 18.5 -44.499s-6.16699 -32.166 -18.5 -44.499
s-27.166 -18.5 -44.499 -18.5z" />
    <glyph glyph-name="quotedbl" unicode="&#x22;" horiz-adv-x="366" 
d="M72 467l-13 235h98l-13 -235h-72zM223 467l-13 235h98l-13 -235h-72z" />
    <glyph glyph-name="numbersign" unicode="#" horiz-adv-x="711" 
d="M75 0l61 209h-106v74h126l39 134h-115v74h135l60 209h91l-60 -209h179l60 209h90l-60 -209h106v-74h-126l-39 -134h115v-74h-136l-60 -209h-90l60 209h-179l-60 -209h-91zM247 283h179l38 134h-179z" />
    <glyph glyph-name="dollar" unicode="$" horiz-adv-x="581" 
d="M257 -67l-0.000976562 86.998c-47.333 4 -91.666 15.5 -132.999 34.5s-77.333 44.5 -108 76.5l56 68c52.667 -54 114.334 -86.333 185.001 -97v211l-43 9c-66 13.333 -113.167 33.333 -141.5 60s-42.5 64.667 -42.5 114c0 37.333 9.5 70 28.5 98s45.5 49.667 79.5 65
s73.667 23.333 119 24v84h57v-86c39.333 -4.66699 78.166 -14 116.499 -28s73.833 -32.333 106.5 -55l-46 -76c-30.667 20 -60.667 36.167 -90 48.5s-58.333 20.833 -87 25.5v-202l42 -7c71.333 -15.333 122 -36.333 152 -63s45 -64 45 -112
c0 -37.333 -10 -70.166 -30 -98.499s-47.833 -50.666 -83.5 -66.999s-77.5 -25.5 -125.5 -27.5v-86h-57zM256.999 403.998l0.00195312 196.002c-40 -0.666992 -72.333 -9.66699 -97 -27s-37 -40.333 -37 -69c0 -18.667 3.66699 -34.334 11 -47.001
s19.666 -22.834 36.999 -30.501s40.666 -14.5 69.999 -20.5zM314.001 99c42 2.66699 76.332 13.5 102.999 32.5s40 43.5 40 73.5c0 18.667 -3.83301 34 -11.5 46s-20.667 22 -39 30s-44.166 15 -77.499 21l-15 3v-206z" />
    <glyph glyph-name="percent" unicode="%" horiz-adv-x="761" 
d="M178 345c-46 0 -83 16.667 -111 50s-42 76.666 -42 129.999c0 54 14 97.5 42 130.5s65 49.5 111 49.5c45.333 0 82 -16.5 110 -49.5s42.333 -76.5 43 -130.5c-0.666992 -53.333 -15 -96.666 -43 -129.999s-64.667 -50 -110 -50zM178 402c27.333 0 49 11.167 65 33.5
s24 52.166 24 89.499c0 38 -8 68.167 -24 90.5s-37.667 33.5 -65 33.5s-48.833 -11.167 -64.5 -33.5s-23.834 -52.5 -24.501 -90.5c0.666992 -37.333 8.83398 -67.166 24.501 -89.499s37.167 -33.5 64.5 -33.5zM142 0l394 700h79l-395 -700h-78zM585 -5
c-46 0 -83 16.667 -111 50s-42 76.666 -42 129.999c0 54 14 97.5 42 130.5s65 49.5 111 49.5c45.333 0 82 -16.5 110 -49.5s42.333 -76.5 43 -130.5c-0.666992 -53.333 -15 -96.666 -43 -129.999s-64.667 -50 -110 -50zM585 52c27.333 0 49 11.167 65 33.5
s24 52.166 24 89.499c0 38 -8 68.167 -24 90.5s-37.667 33.5 -65 33.5s-48.833 -11.167 -64.5 -33.5s-23.834 -52.5 -24.501 -90.5c0.666992 -37.333 8.83398 -67.166 24.501 -89.499s37.167 -33.5 64.5 -33.5z" />
    <glyph glyph-name="ampersand" unicode="&#x26;" horiz-adv-x="666" 
d="M263 -11c-47.333 0 -88.833 8.33008 -124.5 24.9971s-63.5 40 -83.5 70s-30 64.667 -30 104c0 28.667 4.66699 54 14 76s24.833 42.833 46.5 62.5s50.5 39.5 86.5 59.5c-22 28.667 -37.667 55 -47 79s-14 49.333 -14 76c0 32.667 7.66699 61.834 23 87.501
s36.666 45.834 63.999 60.501s58.333 22 93 22c32.667 0 61.834 -6.5 87.501 -19.5s46 -31 61 -54s22.5 -49.5 22.5 -79.5c0 -32 -8.66699 -60.833 -26 -86.5s-44.333 -49.167 -81 -70.5l-50 -31c24 -26.667 50.333 -54 79 -82l87 -83c15.333 24.667 28 51.834 38 81.501
s18.333 61.167 25 94.5l89 -15c-9.33301 -42.667 -21 -82.334 -35 -119.001s-31 -70 -51 -100l58.5 -48.5l55.5 -43.5l-60 -71l-54.5 42.5l-56.5 46.5c-28.667 -27.333 -61.5 -48.166 -98.5 -62.499s-76.5 -21.5 -118.5 -21.5zM254 428.997l50.999 29.999
c22 12.667 38.333 26.834 49 42.501s16 33.5 16 53.5c0 22.667 -7.83301 41.5 -23.5 56.5s-35.167 22.5 -58.5 22.5c-24.667 0 -45 -8.5 -61 -25.5s-24 -38.833 -24 -65.5c0 -18 3.83301 -35.5 11.5 -52.5s20.834 -37.5 39.501 -61.5zM268.999 70.9961
c28.667 0 55.333 4.99707 80 14.9971s46.667 24.667 66 44l-102 97.5c-33.333 33 -63.666 65.167 -90.999 96.5c-26 -14 -46.667 -27.667 -62 -41s-26 -27.166 -32 -41.499s-9 -30.166 -9 -47.499c0 -37.333 13.667 -67.166 41 -89.499s63.666 -33.5 108.999 -33.5z" />
    <glyph glyph-name="quotesingle" unicode="'" horiz-adv-x="216" 
d="M72 467l-13 235h98l-13 -235h-72z" />
    <glyph glyph-name="parenleft" unicode="(" horiz-adv-x="398" 
d="M313 -215c-82 48 -144.833 111.667 -188.5 191s-65.5 170 -65.5 272s21.833 192.833 65.5 272.5s106.5 143.167 188.5 190.5l54 -64c-68.667 -41.333 -121.334 -96.333 -158.001 -165s-55 -146.667 -55 -234c0 -86.667 18.333 -164.5 55 -233.5
s89.334 -123.833 158.001 -164.5z" />
    <glyph glyph-name="parenright" unicode=")" horiz-adv-x="398" 
d="M85 715c82 -48 144.833 -111.667 188.5 -191s65.5 -170 65.5 -272s-21.833 -192.833 -65.5 -272.5s-106.5 -143.167 -188.5 -190.5l-54 64c68.667 41.333 121.334 96.333 158.001 165s55 146.667 55 234c0 86.667 -18.333 164.5 -55 233.5
s-89.334 123.833 -158.001 164.5z" />
    <glyph glyph-name="asterisk" unicode="*" horiz-adv-x="458" 
d="M195 331l2 129l-113 -70l-37 57l120 70l-118 70l38 57l109 -69l-1 125h69l-2 -124l109 68l38 -57l-117 -70l120 -70l-39 -57l-111 69l2 -128h-69z" />
    <glyph glyph-name="plus" unicode="+" 
d="M260 139v178h-166v78h166v179h80v-179h166v-78h-166v-178h-80z" />
    <glyph glyph-name="comma" unicode="," horiz-adv-x="250" 
d="M27 -143l62 233h106l-92 -233h-76z" />
    <glyph glyph-name="hyphen" unicode="-" horiz-adv-x="452" 
d="M46 239v87h360v-87h-360z" />
    <glyph glyph-name="period" unicode="." horiz-adv-x="250" 
d="M125 -7c-17.333 0 -32.166 6.16699 -44.499 18.5s-18.5 27.166 -18.5 44.499s6.16699 32.166 18.5 44.499s27.166 18.5 44.499 18.5s32.166 -6.16699 44.499 -18.5s18.5 -27.166 18.5 -44.499s-6.16699 -32.166 -18.5 -44.499s-27.166 -18.5 -44.499 -18.5z" />
    <glyph glyph-name="slash" unicode="/" horiz-adv-x="480" 
d="M-63 -205l416 905h98l-416 -905h-98z" />
    <glyph glyph-name="zero" unicode="0" horiz-adv-x="671" 
d="M336 -11c-58.667 0 -110 15.167 -154 45.5s-78.5 72.666 -103.5 126.999s-37.5 117.166 -37.5 188.499s12.5 134.166 37.5 188.499s59.5 96.666 103.5 126.999s95.333 45.5 154 45.5c58 0 109 -15.167 153 -45.5s78.5 -72.666 103.5 -126.999
s37.5 -117.166 37.5 -188.499s-12.5 -134.166 -37.5 -188.499s-59.5 -96.666 -103.5 -126.999s-95 -45.5 -153 -45.5zM336 76c40 0 74.667 11.167 104 33.5s52 54.166 68 95.499s24 89.666 24 144.999c0 56 -8 104.5 -24 145.5s-38.667 72.667 -68 95s-64 33.5 -104 33.5
s-74.667 -11.167 -104 -33.5s-52.166 -54 -68.499 -95s-24.5 -89.5 -24.5 -145.5c0 -55.333 8.16699 -103.666 24.5 -144.999s39.166 -73.166 68.499 -95.499s64 -33.5 104 -33.5z" />
    <glyph glyph-name="one" unicode="1" horiz-adv-x="314" 
d="M151 0v597l-126 -53v88l162 68h63v-700h-99z" />
    <glyph glyph-name="two" unicode="2" horiz-adv-x="555" 
d="M49 0v70.001l284 302c19.333 20 34.333 38 45 54s18.167 31.167 22.5 45.5s6.5 29.5 6.5 45.5c0 31.333 -12.667 57.333 -38 78s-57.333 31 -96 31c-32 0 -62 -6.33301 -90 -19s-59 -34.667 -93 -66l-54 66c37.333 34.667 75.833 60.667 115.5 78s80.834 26 123.501 26
c44.667 0 84 -8 118 -24s60.5 -38.167 79.5 -66.5s28.5 -60.833 28.5 -97.5c0 -23.333 -3 -44.833 -9 -64.5s-16.333 -40.334 -31 -62.001s-35.334 -46.5 -62.001 -74.5l-228 -240l344 1v-83h-466z" />
    <glyph glyph-name="three" unicode="3" horiz-adv-x="596" 
d="M290 -11c-50 0 -96.8281 8.83008 -140.495 26.4971s-81.5 43.167 -113.5 76.5l65 62c28 -29.333 56.5 -50.166 85.5 -62.499s63.167 -18.5 102.5 -18.5c31.333 0 59.166 5.33301 83.499 16s43.166 25.334 56.499 44.001s20 40.334 20 65.001
c0 22.667 -5.83301 42.834 -17.5 60.501s-27.334 31.334 -47.001 41.001s-42.834 14.5 -69.501 14.5h-85v81h78c35.333 0 63.666 10.333 84.999 31s32 47.667 32 81c0 22 -6 42 -18 60s-28.5 32.167 -49.5 42.5s-44.833 15.5 -71.5 15.5
c-35.333 0 -66.5 -6.16699 -93.5 -18.5s-54.833 -33.833 -83.5 -64.5l-65 62c32 34.667 69 61.167 111 79.5s86.333 27.5 133 27.5c45.333 0 85.5 -8.33301 120.5 -25s62.667 -39.834 83 -69.501s30.5 -63.167 30.5 -100.5c0 -36.667 -12.167 -69.5 -36.5 -98.5
s-56.166 -49.167 -95.499 -60.5c47.333 -10 85 -29.833 113 -59.5s42 -64.5 42 -104.5c0 -39.333 -10.833 -74.333 -32.5 -105s-51.834 -54.834 -90.501 -72.501s-82.667 -26.5 -132 -26.5z" />
    <glyph glyph-name="four" unicode="4" horiz-adv-x="641" 
d="M424 0v178h-397v79l385 443h111v-438h85v-84h-85v-178h-99zM146 262h278v320z" />
    <glyph glyph-name="five" unicode="5" horiz-adv-x="582" 
d="M280 -11c-93.333 0 -174.331 31.666 -242.998 94.999l59 66c30 -27.333 59.833 -47.166 89.5 -59.499s62.167 -18.5 97.5 -18.5c32 0 59.667 6.16699 83 18.5s41.666 29.666 54.999 51.999s20 47.833 20 76.5c0 42 -14.833 76 -44.5 102s-68.167 39 -115.5 39
c-24 0 -47.667 -3.16699 -71 -9.5s-47.666 -16.166 -72.999 -29.499l-68 21l16 358h416v-83h-332l-10 -216c26 13.333 50.833 22.5 74.5 27.5s48.167 7.5 73.5 7.5c46.667 0 87.167 -8.83301 121.5 -26.5s61.166 -42.5 80.499 -74.5s29 -69 29 -111
c0 -46.667 -10.833 -87.5 -32.5 -122.5s-51.834 -62.5 -90.501 -82.5s-83.667 -30 -135 -30z" />
    <glyph glyph-name="six" unicode="6" horiz-adv-x="622" 
d="M335 -10c-56 0 -105.335 14.332 -148.002 42.999s-76 68.5 -100 119.5s-36 110.167 -36 177.5c0 76.667 13.333 143.5 40 200.5s64.167 101.333 112.5 133s104.833 47.5 169.5 47.5c32 0 63.833 -4.83301 95.5 -14.5s59.167 -23.5 82.5 -41.5l-51 -71
c-20.667 13.333 -42.167 23.333 -64.5 30s-45.833 10 -70.5 10c-45.333 0 -84.166 -11.5 -116.499 -34.5s-57.166 -56.167 -74.499 -99.5s-26.333 -95.666 -27 -156.999c24.667 32.667 54.334 58.167 89.001 76.5s70.667 27.5 108 27.5c46 0 86.667 -9.16699 122 -27.5
s63 -43.833 83 -76.5s30 -70 30 -112c0 -44 -10.667 -83.5 -32 -118.5s-50.333 -62.5 -87 -82.5s-78.334 -30 -125.001 -30zM329.998 359.999c-34.667 0 -67.498 -7.99902 -98.498 -23.999s-57.833 -38 -80.5 -66c6 -39.333 17.167 -73.833 33.5 -103.5
s37.166 -52.667 62.499 -69s53.666 -24.5 84.999 -24.5c29.333 0 55.333 6.33301 78 19s40.5 30 53.5 52s19.5 47 19.5 75c0 27.333 -6.5 51.666 -19.5 72.999s-31 38 -54 50s-49.5 18 -79.5 18z" />
    <glyph glyph-name="seven" unicode="7" horiz-adv-x="574" 
d="M104 0l334 615h-408v85h512v-73l-326 -627h-112z" />
    <glyph glyph-name="eight" unicode="8" horiz-adv-x="622" 
d="M306 -11c-50 0 -94.166 8.6709 -132.499 26.0039s-68.5 41.333 -90.5 72s-33 65.667 -33 105c0 27.333 6.5 52.666 19.5 75.999s31.333 43.666 55 60.999s50.5 29.666 80.5 36.999c-38.667 12 -70 32.333 -94 61s-36 60.667 -36 96c0 36 10.167 68.167 30.5 96.5
s47.833 50.666 82.5 66.999s74 24.5 118 24.5s83.5 -8.16699 118.5 -24.5s62.5 -38.666 82.5 -66.999s30 -60.5 30 -96.5c0 -35.333 -12 -67.333 -36 -96s-55.333 -49 -94 -61c46 -12 83.333 -33.833 112 -65.5s43 -67.834 43 -108.501
c0 -39.333 -10.833 -74.333 -32.5 -105s-51.834 -54.667 -90.501 -72s-83 -26 -133 -26zM306.001 403.004c26 0 49.333 5 70 15s37 23.667 49 41s18 36.666 18 57.999c0 22 -6 41.833 -18 59.5s-28.333 31.334 -49 41.001s-44 14.5 -70 14.5s-49.333 -4.83301 -70 -14.5
s-37 -23.167 -49 -40.5s-18 -37 -18 -59s6 -41.667 18 -59s28.333 -31 49 -41s44 -15 70 -15zM306.001 68.0039c30.667 0 58 5.49805 82 16.498s43 26.333 57 46s21 41.834 21 66.501s-7 46.834 -21 66.501s-33 35 -57 46s-51.333 16.5 -82 16.5s-58 -5.66699 -82 -17
s-43 -26.666 -57 -45.999s-21 -41.333 -21 -66s7 -46.834 21 -66.501s33 -35 57 -46s51.333 -16.5 82 -16.5z" />
    <glyph glyph-name="nine" unicode="9" horiz-adv-x="622" 
d="M287 711c56 0 105.334 -14.501 148.001 -43.501s76 -68.833 100 -119.5s36 -109.667 36 -177c0 -76.667 -13.333 -143.5 -40 -200.5s-64.167 -101.333 -112.5 -133s-104.833 -47.5 -169.5 -47.5c-31.333 0 -63 5 -95 15s-59.667 23.333 -83 40l51 72
c20.667 -13.333 42.334 -23.5 65.001 -30.5s46 -10.5 70 -10.5c45.333 0 84.166 11.667 116.499 35s57.166 56.833 74.499 100.5s26.333 95.5 27 155.5c-24.667 -32.667 -54.334 -58.167 -89.001 -76.5s-70.667 -27.5 -108 -27.5c-46 0 -86.667 9.5 -122 28.5
s-63 44.667 -83 77s-30 69.5 -30 111.5c0 44.667 10.667 84.334 32 119.001s50.333 62 87 82s78.334 30 125.001 30zM292.001 339.999c34.667 0 67.499 8.16797 98.499 24.501s57.833 38.5 80.5 66.5c-5.33301 40 -16.166 74.667 -32.499 104s-37.166 52.166 -62.499 68.499
s-54 24.5 -86 24.5c-28.667 0 -54.5 -6.33301 -77.5 -19s-41 -30 -54 -52s-19.5 -47 -19.5 -75c0 -27.333 6.5 -51.833 19.5 -73.5s31.167 -38.5 54.5 -50.5s49.666 -18 78.999 -18z" />
    <glyph glyph-name="colon" unicode=":" horiz-adv-x="250" 
d="M125 -7c-17.333 0 -32.166 6.16699 -44.499 18.5s-18.5 27.166 -18.5 44.499s6.16699 32.166 18.5 44.499s27.166 18.5 44.499 18.5s32.166 -6.16699 44.499 -18.5s18.5 -27.166 18.5 -44.499s-6.16699 -32.166 -18.5 -44.499s-27.166 -18.5 -44.499 -18.5zM125 393
c-17.333 0 -32.166 6.16699 -44.499 18.5s-18.5 27.166 -18.5 44.499s6.16699 32.166 18.5 44.499s27.166 18.5 44.499 18.5s32.166 -6.16699 44.499 -18.5s18.5 -27.166 18.5 -44.499s-6.16699 -32.166 -18.5 -44.499s-27.166 -18.5 -44.499 -18.5z" />
    <glyph glyph-name="semicolon" unicode=";" horiz-adv-x="250" 
d="M134 393c-17.333 0 -32.166 6.16699 -44.499 18.5s-18.5 27.166 -18.5 44.499s6.16699 32.166 18.5 44.499s27.166 18.5 44.499 18.5s32.166 -6.16699 44.499 -18.5s18.5 -27.166 18.5 -44.499s-6.16699 -32.166 -18.5 -44.499s-27.166 -18.5 -44.499 -18.5zM21 -143
l62 233h106l-92 -233h-76z" />
    <glyph glyph-name="less" unicode="&#x3c;" 
d="M421 85l-327 263l329 263l50 -60l-258 -201l258 -203z" />
    <glyph glyph-name="equal" unicode="=" 
d="M94 229v78h412v-78h-412zM94 403v78h412v-78h-412z" />
    <glyph glyph-name="greater" unicode="&#x3e;" 
d="M179 611l327 -263l-329 -263l-50 60l258 201l-258 203z" />
    <glyph glyph-name="question" unicode="?" horiz-adv-x="514" 
d="M184 205c-1.33301 30.667 0.330078 57.0029 4.99707 79.0029s13.167 41.667 25.5 59s28.833 33.666 49.5 48.999l47 33c26 18.667 44.333 35.834 55 51.501s16 33.167 16 52.5c0 18.667 -5.83301 35 -17.5 49s-27.167 25.333 -46.5 34s-41.333 13 -66 13
c-31.333 0 -60.666 -7.66699 -87.999 -23s-50.333 -37 -69 -65l-80 41c17.333 28 38.5 52 63.5 72s52.5 35.167 82.5 45.5s62 15.5 96 15.5c42.667 0 80.667 -7.83301 114 -23.5s59.833 -36.834 79.5 -63.501s29.5 -57.334 29.5 -92.001
c0 -22.667 -3.66699 -43.334 -11 -62.001s-19.666 -36.834 -36.999 -54.501s-41.333 -37.167 -72 -58.5l-31 -22c-23.333 -15.333 -39.666 -33.166 -48.999 -53.499s-13 -45.833 -11 -76.5h-85zM226.996 -6.99707c-17.333 0 -32.166 6.16699 -44.499 18.5
s-18.5 27.166 -18.5 44.499s6.16699 32.166 18.5 44.499s27.166 18.5 44.499 18.5s32.166 -6.16699 44.499 -18.5s18.5 -27.166 18.5 -44.499s-6.16699 -32.166 -18.5 -44.499s-27.166 -18.5 -44.499 -18.5z" />
    <glyph glyph-name="at" unicode="@" horiz-adv-x="781" 
d="M406 -144c-52 0 -100.165 8.83691 -144.498 26.5039s-82.833 42.167 -115.5 73.5s-58.167 68.5 -76.5 111.5s-27.5 89.5 -27.5 139.5c0 52.667 9.16699 101.667 27.5 147s43.833 84.666 76.5 117.999s71 59.5 115 78.5s92 28.5 144 28.5
c47.333 0 91.333 -7.83301 132 -23.5s76.167 -37.334 106.5 -65.001s54 -60.167 71 -97.5s25.5 -77.333 25.5 -120s-7.83301 -80.667 -23.5 -114s-37.334 -59.5 -65.001 -78.5s-59.167 -28.5 -94.5 -28.5c-46 0 -78.667 13.667 -98 41c-16 -14 -33 -24.667 -51 -32
s-36 -11 -54 -11c-27.333 0 -52 6.66699 -74 20s-39.167 31.5 -51.5 54.5s-18.5 48.833 -18.5 77.5c0 33.333 7.66699 63.666 23 90.999s36 49 62 65s55.333 24 88 24c38.667 0 71 -12 97 -36l5 23h72l-40 -198c-4.66699 -20.667 -2.5 -36.667 6.5 -48s23.5 -17 43.5 -17
c22 0 41.667 7 59 21s31 33.333 41 58s15 52.667 15 84c0 49.333 -12.333 93.5 -37 132.5s-58 69.667 -100 92s-89.667 33.5 -143 33.5c-42 0 -81.333 -8 -118 -24s-68.834 -38.333 -96.501 -67s-49.167 -62.334 -64.5 -101.001s-23 -80 -23 -124
c0 -58.667 13.167 -110.667 39.5 -156s62.833 -80.833 109.5 -106.5s99.667 -38.5 159 -38.5c61.333 0 117 13 167 39l22 -49c-30 -14.667 -60.833 -25.667 -92.5 -33s-64.5 -11 -98.5 -11zM371.002 110.004c27.333 0 51.665 10.334 72.998 31.001v18.5
c0 6.33301 1 13.166 3 20.499l20 99c-9.33301 13.333 -21.166 23.5 -35.499 30.5s-30.166 10.5 -47.499 10.5c-18.667 0 -35.834 -5 -51.501 -15s-28.167 -23.5 -37.5 -40.5s-14 -35.833 -14 -56.5c0 -28.667 8.33301 -52.167 25 -70.5s38.334 -27.5 65.001 -27.5z" />
    <glyph glyph-name="A" unicode="A" horiz-adv-x="701" 
d="M1 0l289 700h124l286 -700h-114l-81 205h-313l-82 -205h-109zM226 292h245l-122 308z" />
    <glyph glyph-name="B" unicode="B" horiz-adv-x="671" 
d="M71 0v700h303c46 0 86 -7.66699 120 -23s60.333 -36.833 79 -64.5s28 -60.167 28 -97.5c0 -34 -8.66699 -64 -26 -90s-41.666 -46.667 -72.999 -62c39.333 -14 70.166 -35.167 92.499 -63.5s33.5 -61.5 33.5 -99.5c0 -40.667 -9.83301 -76 -29.5 -106
s-47.667 -53.167 -84 -69.5s-78.833 -24.5 -127.5 -24.5h-316zM176 403h192c39.333 0 70.666 9.33301 93.999 28s35 44 35 76s-11.667 57.333 -35 76s-54.666 28 -93.999 28h-192v-208zM176 89h203c44 0 78.833 10.333 104.5 31s38.5 48.667 38.5 84
c0 34.667 -12.833 62.5 -38.5 83.5s-60.5 31.5 -104.5 31.5h-203v-230z" />
    <glyph glyph-name="C" unicode="C" horiz-adv-x="720" 
d="M408 -11c-52 0 -100.168 9.16602 -144.501 27.499s-83.333 44 -117 77s-59.667 71.333 -78 115s-27.5 90.834 -27.5 141.501s9.16699 97.834 27.5 141.501s44.333 82 78 115s72.834 58.667 117.501 77s92.667 27.5 144 27.5c36.667 0 72.5 -4.83301 107.5 -14.5
s67.333 -23.5 97 -41.5s55.5 -39.667 77.5 -65l-70 -72c-26 31.333 -57.667 55.166 -95 71.499s-76.333 24.5 -117 24.5c-37.333 0 -71.833 -6.66699 -103.5 -20s-59.167 -31.833 -82.5 -55.5s-41.5 -51.5 -54.5 -83.5s-19.5 -67 -19.5 -105c0 -37.333 6.5 -72 19.5 -104
s31.5 -60 55.5 -84s52 -42.667 84 -56s66.667 -20 104 -20c40.667 0 79.167 8.16699 115.5 24.5s67.166 39.5 92.499 69.5l69 -70c-23.333 -24.667 -49.833 -46.167 -79.5 -64.5s-61.667 -32.333 -96 -42s-69.166 -14.5 -104.499 -14.5z" />
    <glyph glyph-name="D" unicode="D" horiz-adv-x="727" 
d="M176 94h144c36.667 0 70.667 6.5 102 19.5s58.833 31 82.5 54s42 50 55 81s19.5 64.833 19.5 101.5c0 36 -6.5 69.667 -19.5 101s-31.333 58.5 -55 81.5s-51.167 41 -82.5 54s-65.333 19.5 -102 19.5h-144v-512zM71 0l-0.00195312 699.999h247
c52.667 0 101.334 -8.83301 146.001 -26.5s83.667 -42.167 117 -73.5s59.333 -68.333 78 -111s28 -89 28 -139c0 -50.667 -9.16699 -97.167 -27.5 -139.5s-44.166 -79.166 -77.499 -110.499s-72.5 -55.833 -117.5 -73.5s-93.833 -26.5 -146.5 -26.5h-247z" />
    <glyph glyph-name="E" unicode="E" horiz-adv-x="628" 
d="M71 0v700h516v-92h-411v-210h270v-89h-270v-217h415v-92h-520z" />
    <glyph glyph-name="F" unicode="F" horiz-adv-x="620" 
d="M71 0v700h518v-92h-413v-215h272v-89h-272v-304h-105z" />
    <glyph glyph-name="G" unicode="G" horiz-adv-x="790" 
d="M407 -11c-51.333 0 -99.166 9.33301 -143.499 28s-83.166 44.5 -116.499 77.5s-59.333 71.333 -78 115s-28 90.5 -28 140.5s9.16699 96.833 27.5 140.5s44.166 82 77.499 115s72 58.833 116 77.5s91.667 28 143 28c55.333 0 107.666 -10.667 156.999 -32s91 -51 125 -89
l-72 -70c-25.333 30 -56.5 53.167 -93.5 69.5s-75.833 24.5 -116.5 24.5c-36.667 0 -70.5 -6.66699 -101.5 -20s-58.167 -31.833 -81.5 -55.5s-41.5 -51.5 -54.5 -83.5s-19.5 -67 -19.5 -105c0 -37.333 6.5 -72.166 19.5 -104.499s31.333 -60.5 55 -84.5
s51.167 -42.667 82.5 -56s65.333 -20 102 -20c41.333 0 78.833 8.66699 112.5 26s61.167 41.166 82.5 71.499s34.333 64.5 39 102.5h-233v92h343v-36c0 -50 -8.66699 -96.333 -26 -139s-41.5 -80 -72.5 -112s-67.5 -56.833 -109.5 -74.5s-87.333 -26.5 -136 -26.5z" />
    <glyph glyph-name="H" unicode="H" horiz-adv-x="725" 
d="M71 0v700h105v-300h372v300h105v-700h-105v305h-372v-305h-105z" />
    <glyph glyph-name="I" unicode="I" horiz-adv-x="248" 
d="M71 0v700h105v-700h-105z" />
    <glyph glyph-name="J" unicode="J" horiz-adv-x="617" 
d="M283 -11c-64.667 0 -120 16.501 -166 49.501s-79.333 79.833 -100 140.5l96 38c16.667 -44.667 39.167 -77.834 67.5 -99.501s62.5 -32.5 102.5 -32.5c52 0 93.5 16.667 124.5 50s46.5 78 46.5 134v431h105v-433c0 -56 -11.333 -104.833 -34 -146.5s-54.667 -74 -96 -97
s-90 -34.5 -146 -34.5z" />
    <glyph glyph-name="K" unicode="K" horiz-adv-x="650" 
d="M71 0v700h105v-324l339 324h133l-364 -339l375 -361h-144l-339 332v-332h-105z" />
    <glyph glyph-name="L" unicode="L" horiz-adv-x="614" 
d="M71 0v700h105v-607h403v-93h-508z" />
    <glyph glyph-name="M" unicode="M" horiz-adv-x="861" 
d="M71 0v700h141l219 -448l219 448h140v-700h-99v572l-261 -522l-261 522v-572h-98z" />
    <glyph glyph-name="N" unicode="N" horiz-adv-x="735" 
d="M71 0v700h102l391 -520v520h99v-700h-92l-400 536v-536h-100z" />
    <glyph glyph-name="O" unicode="O" horiz-adv-x="810" 
d="M405 -11c-50.667 0 -98 9.16699 -142 27.5s-82.833 44 -116.5 77s-59.667 71.333 -78 115s-27.5 90.834 -27.5 141.501s9.16699 97.834 27.5 141.501s44.333 82 78 115s72.5 58.667 116.5 77s91.333 27.5 142 27.5s98.167 -9.16699 142.5 -27.5s83.166 -44 116.499 -77
s59.333 -71.333 78 -115s28 -90.834 28 -141.501s-9.33301 -97.834 -28 -141.501s-44.667 -82 -78 -115s-72.166 -58.667 -116.499 -77s-91.833 -27.5 -142.5 -27.5zM406 86c36 0 69.5 6.66797 100.5 20.001s58.167 31.833 81.5 55.5s41.666 51.667 54.999 84
s20 67.166 20 104.499c0 38 -6.66699 73 -20 105s-31.666 59.833 -54.999 83.5s-50.5 42.167 -81.5 55.5s-64.5 20 -100.5 20c-36.667 0 -70.667 -6.66699 -102 -20s-58.666 -31.833 -81.999 -55.5s-41.5 -51.5 -54.5 -83.5s-19.5 -66.667 -19.5 -104
c0 -38 6.5 -73.167 19.5 -105.5s31.167 -60.333 54.5 -84s50.666 -42.167 81.999 -55.5s65.333 -20 102 -20z" />
    <glyph glyph-name="P" unicode="P" horiz-adv-x="661" 
d="M71 0l-0.00195312 699.998h324c46 0 86 -8.83301 120 -26.5s60.667 -42.167 80 -73.5s29 -67.666 29 -108.999s-9.66699 -77.666 -29 -108.999s-46.166 -55.833 -80.499 -73.5s-74.166 -26.5 -119.499 -26.5h-219v-282h-105zM175.998 370.998h208
c41.333 0 74.166 10.833 98.499 32.5s36.5 50.5 36.5 86.5s-12.167 64.667 -36.5 86s-57.166 32 -98.499 32h-208v-237z" />
    <glyph glyph-name="Q" unicode="Q" horiz-adv-x="810" 
d="M632 -23l-48 57.998c-26 -14 -54 -25.167 -84 -33.5s-61.333 -12.5 -94 -12.5c-51.333 0 -99.166 9.16699 -143.499 27.5s-83.166 44 -116.499 77s-59.166 71.333 -77.499 115s-27.5 90.834 -27.5 141.501s9.16699 97.834 27.5 141.501s44.166 82 77.499 115
s72.166 58.667 116.499 77s92.166 27.5 143.499 27.5c50.667 0 98 -9.16699 142 -27.5s82.667 -44 116 -77s59.333 -71.333 78 -115s28 -90.834 28 -141.501c0 -51.333 -10 -99.666 -30 -144.999s-47.333 -84.333 -82 -117l72 -88zM406 85.998
c20.667 0 40.499 2.33398 59.499 7.00098s36.833 11.667 53.5 21l-90 109l99 24l65 -79c22 23.333 39.167 50.666 51.5 81.999s18.5 64.666 18.5 99.999c0 38 -6.66699 73 -20 105s-31.666 59.833 -54.999 83.5s-50.5 42.167 -81.5 55.5s-64.5 20 -100.5 20
c-36.667 0 -70.667 -6.66699 -102 -20s-58.666 -31.833 -81.999 -55.5s-41.5 -51.5 -54.5 -83.5s-19.5 -67 -19.5 -105c0 -37.333 6.5 -72.166 19.5 -104.499s31.167 -60.333 54.5 -84s50.666 -42.167 81.999 -55.5s65.333 -20 102 -20z" />
    <glyph glyph-name="R" unicode="R" horiz-adv-x="659" 
d="M71 0v700h317c46.667 0 87.5 -8.66699 122.5 -26s62.333 -41.5 82 -72.5s29.5 -67.167 29.5 -108.5c0 -46 -13 -85.667 -39 -119s-61 -57.333 -105 -72l156 -302h-116l-145 287h-197v-287h-105zM176 375h204c41.333 0 74.5 10.5 99.5 31.5s37.5 49.5 37.5 85.5
c0 34.667 -12.5 62.667 -37.5 84s-58.167 32 -99.5 32h-204v-233z" />
    <glyph glyph-name="S" unicode="S" horiz-adv-x="613" 
d="M308 -10c-56 0 -109.999 11.001 -161.999 33.001s-98 53 -138 93l64 74c38 -37.333 76.833 -65 116.5 -83s81.167 -27 124.5 -27c34 0 63.833 4.83301 89.5 14.5s45.5 23.5 59.5 41.5s21 38.333 21 61c0 31.333 -11 55.333 -33 72s-58.333 29.334 -109 38.001l-117 19
c-64 11.333 -111.833 32 -143.5 62s-47.5 70 -47.5 120c0 40 10.667 75.167 32 105.5s51.5 53.833 90.5 70.5s84.167 25 135.5 25c50.667 0 100.5 -8.16699 149.5 -24.5s93.167 -39.833 132.5 -70.5l-58 -80c-75.333 57.333 -151.666 86 -228.999 86
c-30.667 0 -57.334 -4.33301 -80.001 -13s-40.334 -20.834 -53.001 -36.501s-19 -33.834 -19 -54.501c0 -28.667 9.66699 -50.5 29 -65.5s51.333 -25.833 96 -32.5l113 -19c74 -12 128.333 -33.667 163 -65s52 -74.333 52 -129c0 -42.667 -11.667 -80.167 -35 -112.5
s-56 -57.5 -98 -75.5s-90.667 -27 -146 -27z" />
    <glyph glyph-name="T" unicode="T" horiz-adv-x="631" 
d="M263 0v607h-246v93h597v-93h-246v-607h-105z" />
    <glyph glyph-name="U" unicode="U" horiz-adv-x="713" 
d="M356 -11c-60.667 0 -113.333 12.667 -158 38s-79 61.166 -103 107.499s-36 101.166 -36 164.499v401h105v-401c0 -43.333 7.83301 -81 23.5 -113s38 -56.667 67 -74s62.833 -26 101.5 -26c40 0 74.333 8.66699 103 26s50.834 42 66.501 74s23.5 69.667 23.5 113v401h105
v-401c0 -63.333 -12.167 -118.166 -36.5 -164.499s-58.833 -82.166 -103.5 -107.499s-97.334 -38 -158.001 -38z" />
    <glyph glyph-name="V" unicode="V" horiz-adv-x="701" 
d="M287 0l-286 700h113l237 -596l241 596h108l-290 -700h-123z" />
    <glyph glyph-name="W" unicode="W" horiz-adv-x="908" 
d="M184 0l-153 700h108l109 -535l158 535h100l158 -534l110 534h103l-153 -700h-108l-161 550l-162 -550h-109z" />
    <glyph glyph-name="X" unicode="X" horiz-adv-x="663" 
d="M1 0l268 362l-253 338h127l189 -258l188 258h122l-250 -337l271 -363h-126l-207 284l-208 -284h-121z" />
    <glyph glyph-name="Y" unicode="Y" horiz-adv-x="666" 
d="M281 0v278l-282 422h122l215 -329l215 329h117l-282 -424v-276h-105z" />
    <glyph glyph-name="Z" unicode="Z" horiz-adv-x="609" 
d="M23 0v73l420 535h-416v92h554v-73l-422 -535h428v-92h-564z" />
    <glyph glyph-name="bracketleft" unicode="[" horiz-adv-x="366" 
d="M57 -209v909h271v-79h-176v-751h176v-79h-271z" />
    <glyph glyph-name="backslash" unicode="\" horiz-adv-x="486" 
d="M446 -205l-416 905h103l416 -905h-103z" />
    <glyph glyph-name="bracketright" unicode="]" horiz-adv-x="366" 
d="M309 700v-909h-271v79h176v751h-176v79h271z" />
    <glyph glyph-name="asciicircum" unicode="^" horiz-adv-x="555" 
d="M52 350l183 350h85l183 -350h-85l-141 270l-140 -270h-85z" />
    <glyph glyph-name="underscore" unicode="_" horiz-adv-x="487" 
d="M-1 -153v73h489v-73h-489z" />
    <glyph glyph-name="grave" unicode="`" 
d="M283 603l-128 122h122l90 -122h-84z" />
    <glyph glyph-name="a" unicode="a" horiz-adv-x="532" 
d="M220 -9c-36.667 0 -69.002 6.5 -97.002 19.5s-50 31.167 -66 54.5s-24 50.333 -24 81c0 48 18.333 85.833 55 113.5s87 41.5 151 41.5c50 0 96.333 -9.66699 139 -29v54c0 36.667 -10.5 64 -31.5 82s-51.833 27 -92.5 27c-23.333 0 -47.666 -3.5 -72.999 -10.5
s-53.666 -17.833 -84.999 -32.5l-37 75c38.667 18 74.667 31.167 108 39.5s67 12.5 101 12.5c66 0 117.167 -15.667 153.5 -47s54.5 -76 54.5 -134v-338h-98v44c-22.667 -18 -47 -31.333 -73 -40s-54.333 -13 -85 -13zM128.998 148c0 -24.667 10.5 -44.501 31.5 -59.501
s48.5 -22.5 82.5 -22.5c26.667 0 51.167 3.83301 73.5 11.5s42.833 19.834 61.5 36.501v86c-19.333 11.333 -39.5 19.5 -60.5 24.5s-44.5 7.5 -70.5 7.5c-36.667 0 -65.5 -7.5 -86.5 -22.5s-31.5 -35.5 -31.5 -61.5z" />
    <glyph glyph-name="b" unicode="b" horiz-adv-x="607" 
d="M59 0l-0.000976562 699.998l100 19v-258c42.667 37.333 94.334 56 155.001 56c48 0 91.5 -11.667 130.5 -35s69.833 -54.666 92.5 -93.999s34 -83.666 34 -132.999s-11.5 -93.833 -34.5 -133.5s-54 -71.167 -93 -94.5s-82.833 -35 -131.5 -35
c-28 0 -55.167 4.5 -81.5 13.5s-50.5 21.833 -72.5 38.5v-44h-99zM300.999 78.998c32.667 0 61.8359 7.66992 87.5029 23.0029s46.167 36.166 61.5 62.499s23 56.166 23 89.499s-7.66699 63.333 -23 90s-35.833 47.667 -61.5 63s-54.834 23 -87.501 23
c-28.667 0 -55.334 -5.33301 -80.001 -16s-45.334 -25.667 -62.001 -45v-230c16.667 -18.667 37.5 -33.334 62.5 -44.001s51.5 -16 79.5 -16z" />
    <glyph glyph-name="c" unicode="c" horiz-adv-x="521" 
d="M298 -9c-48.667 0 -93.001 11.6699 -133.001 35.0029s-71.5 55 -94.5 95s-34.5 84.667 -34.5 134s11.667 93.833 35 133.5s54.833 71.334 94.5 95.001s83.834 35.5 132.501 35.5c38.667 0 75.834 -7.33301 111.501 -22s66.5 -35.334 92.5 -62.001l-62 -69
c-19.333 21.333 -41 37.333 -65 48s-49 16 -75 16c-30.667 0 -58.5 -7.66699 -83.5 -23s-44.833 -36.333 -59.5 -63s-22 -56.334 -22 -89.001s7.33301 -62.334 22 -89.001s34.667 -47.834 60 -63.501s53.666 -23.5 84.999 -23.5c26 0 50.333 5.16699 73 15.5
s44 25.5 64 45.5l61 -64c-26.667 -27.333 -57.5 -48.333 -92.5 -63s-71.5 -22 -109.5 -22z" />
    <glyph glyph-name="d" unicode="d" horiz-adv-x="607" 
d="M293 -8c-47.333 0 -90.667 11.6699 -130 35.0029s-70.333 54.833 -93 94.5s-34 84.167 -34 133.5s11.5 93.666 34.5 132.999s54.167 70.666 93.5 93.999s83 35 131 35c28 0 55 -4.33301 81 -13s50 -21.334 72 -38.001v234l100 19v-719h-99v49
c-43.333 -38 -95.333 -57 -156 -57zM305.999 79.0029c29.333 0 56.166 5.33203 80.499 15.999s44.833 26 61.5 46v229c-16.667 18.667 -37.167 33.5 -61.5 44.5s-51.166 16.5 -80.499 16.5c-32 0 -61 -7.66699 -87 -23s-46.667 -36.166 -62 -62.499s-23 -56.166 -23 -89.499
s7.66699 -63.333 23 -90s36 -47.834 62 -63.501s55 -23.5 87 -23.5z" />
    <glyph glyph-name="e" unicode="e" horiz-adv-x="573" 
d="M303 -9c-50 0 -95.1689 11.6641 -135.502 34.9971s-72.333 55 -96 95s-35.5 84.667 -35.5 134c0 48.667 11.333 92.834 34 132.501s53.334 71.334 92.001 95.001s81.667 35.5 129 35.5s89.333 -11.833 126 -35.5s65.834 -55.667 87.501 -96s32.5 -85.833 32.5 -136.5v-28
h-401c5.33301 -28 15.833 -53 31.5 -75s35.667 -39.333 60 -52s50.833 -19 79.5 -19c24.667 0 48.5 3.83301 71.5 11.5s42.167 18.834 57.5 33.501l64 -63c-30 -22.667 -60.833 -39.5 -92.5 -50.5s-66.5 -16.5 -104.5 -16.5zM136.998 296.997l300.998 -0.00195312
c-4 26.667 -13.167 50.167 -27.5 70.5s-32 36.333 -53 48s-43.833 17.5 -68.5 17.5c-25.333 0 -48.666 -5.66699 -69.999 -17s-39.166 -27.166 -53.499 -47.499s-23.833 -44.166 -28.5 -71.499z" />
    <glyph glyph-name="f" unicode="f" horiz-adv-x="397" 
d="M135 0l-0.000976562 425h-118v84h118v77c0 53.333 14.833 94 44.5 122s72.167 42 127.5 42c14 0 27.167 -0.833008 39.5 -2.5s23.5 -4.16699 33.5 -7.5v-86c-12 3.33301 -22.667 5.83301 -32 7.5s-19.666 2.5 -30.999 2.5c-28 0 -48.833 -6.5 -62.5 -19.5
s-20.5 -33.5 -20.5 -61.5v-74h146v-84h-146v-425h-99z" />
    <glyph glyph-name="g" unicode="g" horiz-adv-x="603" 
d="M311 -214c-37.333 0 -73.667 4.33203 -109 12.999s-67.333 21 -96 37l38 78c30 -15.333 58.167 -26.5 84.5 -33.5s52.833 -10.5 79.5 -10.5c44.667 0 78.5 10.333 101.5 31s34.5 51 34.5 91v58c-44.667 -35.333 -95.667 -53 -153 -53c-46.667 0 -89.5 11.5 -128.5 34.5
s-69.833 54.333 -92.5 94s-34 83.5 -34 131.5c0 48.667 11.5 92.834 34.5 132.501s54 71 93 94s82.833 34.5 131.5 34.5c27.333 0 53.833 -4.5 79.5 -13.5s49.167 -21.833 70.5 -38.5v43h99v-517c0 -66 -20.167 -116.833 -60.5 -152.5s-97.833 -53.5 -172.5 -53.5z
M303.999 82.999c29.333 0 56 5.16504 80 15.498s44 25.166 60 44.499v228c-16 18.667 -36.167 33.334 -60.5 44.001s-50.833 16 -79.5 16c-32 0 -60.833 -7.66699 -86.5 -23s-46 -36.166 -61 -62.499s-22.5 -55.833 -22.5 -88.5s7.5 -62.167 22.5 -88.5
s35.333 -47.166 61 -62.499s54.5 -23 86.5 -23z" />
    <glyph glyph-name="h" unicode="h" horiz-adv-x="567" 
d="M59 0v699.999l100 22v-265c39.333 41.333 90.333 62 153 62c39.333 0 73.833 -8.33301 103.5 -25s53 -40 70 -70s25.5 -64.667 25.5 -104v-320h-100v303c0 40 -11.333 71.5 -34 94.5s-53.667 34.5 -93 34.5c-26.667 0 -50.667 -5.66699 -72 -17s-39 -27.666 -53 -48.999
v-366h-100z" />
    <glyph glyph-name="i" unicode="i" horiz-adv-x="218" 
d="M59 0v509h100v-509h-100zM109 591c-16.667 0 -31 6.16699 -43 18.5s-18 26.833 -18 43.5c0 17.333 6 31.833 18 43.5s26.333 17.5 43 17.5c17.333 0 32 -5.83301 44 -17.5s18 -26.167 18 -43.5c0 -16.667 -6 -31.167 -18 -43.5s-26.667 -18.5 -44 -18.5z" />
    <glyph glyph-name="j" unicode="j" horiz-adv-x="218" 
d="M109 591c-16.667 0 -31 6.16699 -43 18.5s-18 26.833 -18 43.5c0 17.333 6 31.833 18 43.5s26.333 17.5 43 17.5c17.333 0 32 -5.83301 44 -17.5s18 -26.167 18 -43.5c0 -16.667 -6 -31.167 -18 -43.5s-26.667 -18.5 -44 -18.5zM14 -214
c-10.667 0 -21.166 0.833008 -31.499 2.5s-18.833 3.16699 -25.5 4.5v80c11.333 -2.66699 24.666 -4 39.999 -4c22 0 37.833 4.83301 47.5 14.5s14.5 25.5 14.5 47.5v578h100v-585c0 -44 -12.5 -78 -37.5 -102s-60.833 -36 -107.5 -36z" />
    <glyph glyph-name="k" unicode="k" horiz-adv-x="524" 
d="M59 0v700l100 19v-433l247 223h117l-263 -238l277 -271h-132l-246 239v-239h-100z" />
    <glyph glyph-name="l" unicode="l" horiz-adv-x="218" 
d="M59 0v700l100 19v-719h-100z" />
    <glyph glyph-name="m" unicode="m" horiz-adv-x="878" 
d="M59 0l0.000976562 508.998h100v-49c38 39.333 85.667 59 143 59c34.667 0 65.5 -7.66699 92.5 -23s48.5 -36 64.5 -62c21.333 28 46.333 49.167 75 63.5s61 21.5 97 21.5c38 0 71.167 -8.33301 99.5 -25s50.666 -40 66.999 -70s24.5 -64.667 24.5 -104v-320h-100v303
c0 40 -10.5 71.5 -31.5 94.5s-49.5 34.5 -85.5 34.5c-24.667 0 -47 -5.66699 -67 -17s-37.333 -28.666 -52 -51.999c1.33301 -6.66699 2.33301 -13.667 3 -21s1 -14.666 1 -21.999v-320h-99v303c0 40 -10.5 71.5 -31.5 94.5s-49.5 34.5 -85.5 34.5
c-24 0 -45.667 -5.16699 -65 -15.5s-36 -25.833 -50 -46.5v-370h-100z" />
    <glyph glyph-name="n" unicode="n" horiz-adv-x="567" 
d="M59 0v508.999h100v-52c39.333 41.333 90.333 62 153 62c39.333 0 73.833 -8.33301 103.5 -25s53 -40 70 -70s25.5 -64.667 25.5 -104v-320h-100v303c0 40 -11.167 71.5 -33.5 94.5s-53.5 34.5 -93.5 34.5c-26.667 0 -50.667 -5.66699 -72 -17s-39 -27.666 -53 -48.999
v-366h-100z" />
    <glyph glyph-name="o" unicode="o" horiz-adv-x="602" 
d="M301 -10c-49.333 0 -94.166 11.667 -134.499 35s-72.166 55 -95.499 95s-35 84.667 -35 134s11.667 94 35 134s55.166 71.833 95.499 95.5s85.166 35.5 134.499 35.5c50 0 95 -11.833 135 -35.5s71.667 -55.5 95 -95.5s35 -84.667 35 -134s-11.667 -94 -35 -134
s-55 -71.667 -95 -95s-85 -35 -135 -35zM301 78c31.333 0 59.668 7.83301 85.001 23.5s45.333 36.834 60 63.501s22 56.667 22 90c0 32.667 -7.5 62.167 -22.5 88.5s-35 47.5 -60 63.5s-53.167 24 -84.5 24s-59.5 -8 -84.5 -24s-45 -37.167 -60 -63.5
s-22.5 -55.833 -22.5 -88.5c0 -33.333 7.33301 -63.333 22 -90s34.667 -47.834 60 -63.501s53.666 -23.5 84.999 -23.5z" />
    <glyph glyph-name="p" unicode="p" horiz-adv-x="607" 
d="M59 -204v712.998h99v-49c42.667 38 94.667 57 156 57c48 0 91.5 -11.667 130.5 -35s69.833 -54.666 92.5 -93.999s34 -83.666 34 -132.999s-11.5 -93.833 -34.5 -133.5s-54 -71.167 -93 -94.5s-82.833 -35 -131.5 -35c-28 0 -55 4.5 -81 13.5s-50 21.833 -72 38.5v-248
h-100zM301 78.998c32.667 0 61.8359 7.66992 87.5029 23.0029s46.167 36.166 61.5 62.499s23 56.166 23 89.499s-7.66699 63.333 -23 90s-35.833 47.667 -61.5 63s-54.834 23 -87.501 23c-28.667 0 -55.334 -5.33301 -80.001 -16s-45.334 -25.667 -62.001 -45v-230
c16.667 -18.667 37.5 -33.334 62.5 -44.001s51.5 -16 79.5 -16z" />
    <glyph glyph-name="q" unicode="q" horiz-adv-x="607" 
d="M448 -204v252.002c-43.333 -37.333 -95 -56 -155 -56c-47.333 0 -90.666 11.667 -129.999 35s-70.333 54.833 -93 94.5s-34 84.167 -34 133.5s11.5 93.666 34.5 132.999s54.167 70.666 93.5 93.999s83 35 131 35c28.667 0 56.167 -4.5 82.5 -13.5
s50.166 -21.5 71.499 -37.5v43h99v-713h-100zM306 79.002c29.333 0 56.166 5.33203 80.499 15.999s44.833 26 61.5 46v229c-16.667 18.667 -37.167 33.5 -61.5 44.5s-51.166 16.5 -80.499 16.5c-32 0 -61 -7.66699 -87 -23s-46.667 -36.166 -62 -62.499
s-23 -56.166 -23 -89.499s7.66699 -63.333 23 -90s36 -47.834 62 -63.501s55 -23.5 87 -23.5z" />
    <glyph glyph-name="r" unicode="r" horiz-adv-x="371" 
d="M59 0v509h100v-65c16 24 35.833 42.833 59.5 56.5s50.5 20.5 80.5 20.5c20.667 -0.666992 37.667 -3.66699 51 -9v-90c-9.33301 4 -19 6.83301 -29 8.5s-20 2.5 -30 2.5c-29.333 0 -55.333 -7.83301 -78 -23.5s-40.667 -38.5 -54 -68.5v-341h-100z" />
    <glyph glyph-name="s" unicode="s" horiz-adv-x="465" 
d="M234 -10c-44 0 -85.167 6.49902 -123.5 19.499s-71.5 31.5 -99.5 55.5l55 66c26 -20.667 52.833 -36.5 80.5 -47.5s55.834 -16.5 84.501 -16.5c36 0 65.333 7 88 21s34 32.333 34 55c0 18.667 -6.66699 33.334 -20 44.001s-34 18 -62 22l-92 13
c-50.667 7.33301 -88.667 23 -114 47s-38 56 -38 96c0 30.667 8.33301 57.5 25 80.5s40 41 70 54s65 19.5 105 19.5c36.667 0 72 -5.33301 106 -16s66.667 -27.334 98 -50.001l-51 -66c-28 18.667 -55.167 32.334 -81.5 41.001s-52.833 13 -79.5 13
c-30.667 0 -55.334 -6.5 -74.001 -19.5s-28 -29.833 -28 -50.5c0 -18.667 6.5 -33.167 19.5 -43.5s34.5 -17.5 64.5 -21.5l92 -13c50.667 -7.33301 89 -22.833 115 -46.5s39 -55.5 39 -95.5c0 -30.667 -9.33301 -58.167 -28 -82.5s-44 -43.5 -76 -57.5s-68.333 -21 -109 -21
z" />
    <glyph glyph-name="t" unicode="t" horiz-adv-x="389" 
d="M277 -9c-49.333 0 -87 11.5 -113 34.5s-39 56.5 -39 100.5v299h-108v84h108v130l99 24v-154h150v-84h-150v-276c0 -26 5.83301 -44.5 17.5 -55.5s30.834 -16.5 57.501 -16.5c14 0 26.5 1 37.5 3s22.833 5 35.5 9v-84c-13.333 -4.66699 -28.833 -8.16699 -46.5 -10.5
s-33.834 -3.5 -48.501 -3.5z" />
    <glyph glyph-name="u" unicode="u" horiz-adv-x="567" 
d="M256 -10c-39.333 0 -73.998 8.33398 -103.998 25.001s-53.333 40.167 -70 70.5s-25 65.166 -25 104.499v319h99v-302c0 -40 11.5 -71.667 34.5 -95s53.833 -35 92.5 -35c27.333 0 51.666 5.83301 72.999 17.5s38.666 28.167 51.999 49.5v365h100v-509h-100v52
c-39.333 -41.333 -90 -62 -152 -62z" />
    <glyph glyph-name="v" unicode="v" horiz-adv-x="540" 
d="M223 0l-220 509h110l159 -381l159 381h106l-218 -509h-96z" />
    <glyph glyph-name="w" unicode="w" horiz-adv-x="731" 
d="M154 0l-142 509h97l99 -374l116 374h86l116 -374l99 374h94l-143 -509h-96l-114 373l-115 -373h-97z" />
    <glyph glyph-name="x" unicode="x" horiz-adv-x="517" 
d="M2 0l198 261l-190 248h117l131 -174l131 174h113l-188 -247l200 -262h-117l-141 188l-141 -188h-113z" />
    <glyph glyph-name="y" unicode="y" horiz-adv-x="537" 
d="M93 -215c-10.667 0 -20.6689 0.499023 -30.002 1.49902s-17 2.5 -23 4.5v88c12 -2.66699 26.667 -4 44 -4c46.667 0 80.334 25 101.001 75l22 49l-204 510h111l148 -388l164 388h108l-246 -572c-16 -36 -33 -65.167 -51 -87.5s-38.667 -38.666 -62 -48.999
s-50.666 -15.5 -81.999 -15.5z" />
    <glyph glyph-name="z" unicode="z" horiz-adv-x="478" 
d="M29 0v74l286 349h-283v86h408v-73l-286 -350h291v-86h-416z" />
    <glyph glyph-name="braceleft" unicode="{" horiz-adv-x="401" 
d="M273 -216c-40.667 0 -73.998 8.99902 -99.998 26.999s-42.5 42.333 -49.5 73s-2.83301 64.667 12.5 102l38 98c14 35.333 14.5 65 1.5 89s-36.833 36 -71.5 36h-81v77h81c34.667 0 58.5 12.333 71.5 37s12.5 54.334 -1.5 89.001l-38 96
c-15.333 38 -19.5 72.333 -12.5 103s23.5 55 49.5 73s59.333 27 100 27c15.333 0 30 -1.33301 44 -4s28.667 -6.66699 44 -12l-17 -74c-10.667 4 -21 6.83301 -31 8.5s-20.333 2.5 -31 2.5c-30 0 -50.5 -10.5 -61.5 -31.5s-10.167 -47.5 2.5 -79.5l43 -113
c14 -37.333 12.667 -71 -4 -101s-44.334 -49.667 -83.001 -59c39.333 -10 67.166 -30.167 83.499 -60.5s17.5 -63.5 3.5 -99.5l-43 -114c-12.667 -32 -13.5 -58.5 -2.5 -79.5s31.5 -31.5 61.5 -31.5c10.667 0 21 0.833008 31 2.5s20.333 4.5 31 8.5l17 -74
c-15.333 -5.33301 -30 -9.33301 -44 -12s-28.667 -4 -44 -4z" />
    <glyph glyph-name="bar" unicode="|" horiz-adv-x="298" 
d="M104 -205v905h90v-905h-90z" />
    <glyph glyph-name="braceright" unicode="}" horiz-adv-x="401" 
d="M128 711c40.667 0 73.998 -8.99902 99.998 -26.999s42.5 -42.333 49.5 -73s2.83301 -64.667 -12.5 -102l-38 -98c-14 -35.333 -14.5 -65 -1.5 -89s36.833 -36 71.5 -36h81v-77h-81c-34.667 0 -58.5 -12.333 -71.5 -37s-12.5 -54.334 1.5 -89.001l38 -96
c15.333 -38 19.5 -72.333 12.5 -103s-23.5 -55 -49.5 -73s-59.333 -27 -100 -27c-15.333 0 -30 1.33301 -44 4s-28.667 6.66699 -44 12l17 74c10.667 -4 21 -6.83301 31 -8.5s20.333 -2.5 31 -2.5c30 0 50.5 10.5 61.5 31.5s10.167 47.5 -2.5 79.5l-43 113
c-14 37.333 -12.667 71 4 101s44.334 49.667 83.001 59c-39.333 10 -67.166 30.167 -83.499 60.5s-17.5 63.5 -3.5 99.5l43 114c12.667 32 13.5 58.5 2.5 79.5s-31.5 31.5 -61.5 31.5c-10.667 0 -21 -0.833008 -31 -2.5s-20.333 -4.5 -31 -8.5l-17 74
c15.333 5.33301 30 9.33301 44 12s28.667 4 44 4z" />
    <glyph glyph-name="asciitilde" unicode="~" horiz-adv-x="584" 
d="M108 295l-71.999 7.99902c6 50 20.5 88.5 43.5 115.5s52.833 40.5 89.5 40.5c14 0 28.5 -2.16699 43.5 -6.5s31.167 -11.166 48.5 -20.499l83 -41c15.333 -8 27.666 -13.5 36.999 -16.5s18.333 -4.5 27 -4.5c38.667 0 62 28.667 70 86l70 -8
c-5.33301 -50 -19.666 -88.5 -42.999 -115.5s-53.333 -40.5 -90 -40.5c-12.667 0 -26.834 2 -42.501 6s-32.167 10.667 -49.5 20l-83 41c-16 8.66699 -28.5 14.5 -37.5 17.5s-17.5 4.5 -25.5 4.5c-38.667 0 -61.667 -28.667 -69 -86z" />
    <glyph glyph-name="uni00A0" unicode="&#xa0;" horiz-adv-x="209" 
 />
    <glyph glyph-name="exclamdown" unicode="&#xa1;" horiz-adv-x="216" 
d="M148 297l12 -505h-103l12 505h79zM108 504c17.333 0 32.333 -6.16699 45 -18.5s19 -27.166 19 -44.499s-6.33301 -32.166 -19 -44.499s-27.667 -18.5 -45 -18.5s-32.166 6.16699 -44.499 18.5s-18.5 27.166 -18.5 44.499s6.16699 32.166 18.5 44.499
s27.166 18.5 44.499 18.5z" />
    <glyph glyph-name="cent" unicode="&#xa2;" horiz-adv-x="522" 
d="M267 -116v108.002c-44 5.33301 -83.333 20 -118 44s-62.167 55 -82.5 93s-30.5 80 -30.5 126s10.167 87.833 30.5 125.5s47.833 68.667 82.5 93s74 39.166 118 44.499v96h55v-96c34.667 -2.66699 67.5 -11.167 98.5 -25.5s58.167 -33.5 81.5 -57.5l-62 -69
c-16.667 18 -35 32.333 -55 43s-41 17 -63 19v-347c21.333 2 41.833 8 61.5 18s38.167 23.667 55.5 41l61 -64c-24 -24 -51.333 -43.333 -82 -58s-62.667 -23.334 -96 -26.001v-108h-55zM135 255.002c0 -28.667 5.66699 -55.1641 17 -79.4971s27 -44.5 47 -60.5
s42.667 -26.667 68 -32v343c-25.333 -4.66699 -48 -15.334 -68 -32.001s-35.667 -36.834 -47 -60.501s-17 -49.834 -17 -78.501z" />
    <glyph glyph-name="sterling" unicode="&#xa3;" horiz-adv-x="629" 
d="M463 -23c-10 0 -20.333 0.666016 -31 1.99902s-21.667 3.33301 -33 6l-190 41c-6.66699 1.33301 -13.334 2.5 -20.001 3.5s-13 1.5 -19 1.5c-22 0 -40.5 -5.5 -55.5 -16.5s-28.167 -27.833 -39.5 -50.5l-74 47c17.333 32 37.5 56.333 60.5 73s49.833 26.334 80.5 29.001
c14.667 12 22 30 22 54c0 2 -0.166992 4.66699 -0.5 8s-1.16602 9.16602 -2.49902 17.499s-3.5 21 -6.5 38l-12.5 70.5h-102v70h89l-11 62.5c-2.66699 15 -4.33398 26.833 -5.00098 35.5s-1 16 -1 22c0 44.667 9.16699 83.334 27.5 116.001s44.5 58.167 78.5 76.5
s74 27.5 120 27.5c62.667 0 114 -15 154 -45s67.667 -74.333 83 -133l-85 -26c-10 39.333 -27.667 69.166 -53 89.499s-57.333 30.5 -96 30.5c-43.333 0 -76.5 -11.833 -99.5 -35.5s-34.5 -56.5 -34.5 -98.5c0 -5.33301 0.333008 -11.5 1 -18.5s2.33398 -18.5 5.00098 -34.5
l11 -69h202v-70h-188l9.5 -56l5.5 -33c1.33301 -8 2.16602 -14 2.49902 -18s0.5 -7.33301 0.5 -10c0 -33.333 -9 -59.666 -27 -78.999l185 -39c7.33301 -2 14.333 -3.33301 21 -4s13.334 -1 20.001 -1c39.333 0 69.333 19.667 90 59l74 -45
c-37.333 -65.333 -89.333 -98 -156 -98z" />
    <glyph glyph-name="uni00A4" unicode="&#xa4;" horiz-adv-x="684" 
d="M89 56l-50.999 51l94 95c-16 21.333 -28.667 45.833 -38 73.5s-14 56.5 -14 86.5c0 30.667 4.66699 59.5 14 86.5s22.333 51.5 39 73.5l-95 95l51 52l95 -96c22 16 46.333 28.667 73 38s55 14 85 14s58.333 -4.66699 85 -14s51 -22.333 73 -39l95 96l50 -50l-96 -95
c17.333 -22 30.666 -46.667 39.999 -74s14 -56.333 14 -87c0 -30 -4.5 -58.667 -13.5 -86s-21.833 -52 -38.5 -74l95 -96l-51 -51l-95 96c-22 -16.667 -46.333 -29.667 -73 -39s-55 -14 -85 -14s-58.5 4.83301 -85.5 14.5s-51.5 22.5 -73.5 38.5zM342.001 185
c30.667 0 58.667 8 84 24s45.5 37.333 60.5 64s22.5 56.334 22.5 89.001c0 33.333 -7.5 63.166 -22.5 89.499s-35.167 47.333 -60.5 63s-53.333 23.5 -84 23.5c-31.333 0 -59.5 -7.83301 -84.5 -23.5s-45 -36.667 -60 -63s-22.5 -56.166 -22.5 -89.499
c0 -32.667 7.5 -62.334 22.5 -89.001s35 -48 60 -64s53.167 -24 84.5 -24z" />
    <glyph glyph-name="yen" unicode="&#xa5;" horiz-adv-x="670" 
d="M284 0v133h-184v62h184v68h-184v62h154l-249 375h122l213 -329l208 329h116l-245 -375h151v-62h-181v-68h181v-62h-181v-133h-105z" />
    <glyph glyph-name="uni00A6" unicode="&#xa6;" horiz-adv-x="300" 
d="M104 288v412h92v-412h-92zM104 -205v412h92v-412h-92z" />
    <glyph glyph-name="section" unicode="&#xa7;" horiz-adv-x="571" 
d="M280 -51c-32 0 -63.998 4.33398 -95.998 13.001s-62.667 21 -92 37l38 66c58 -32 108 -48 150 -48c28.667 0 51.167 6.16699 67.5 18.5s24.5 29.5 24.5 51.5c0 16.667 -5.33301 30.667 -16 42s-28.334 21 -53.001 29l-108 36c-53.333 17.333 -90.833 37 -112.5 59
s-32.5 51.333 -32.5 88c0 31.333 9.16699 58.166 27.5 80.499s42.833 38.5 73.5 48.5c-28.667 24 -43 55.667 -43 95c0 44 16.833 79.167 50.5 105.5s78.167 39.5 133.5 39.5c30.667 0 62.167 -4.5 94.5 -13.5s63.5 -21.833 93.5 -38.5l-39 -65c-56 32 -106 48 -150 48
c-29.333 0 -52 -6.16699 -68 -18.5s-24 -29.166 -24 -50.499c0 -17.333 5.5 -31.666 16.5 -42.999s28.833 -21 53.5 -29l107 -35c53.333 -18 90.833 -37.833 112.5 -59.5s32.5 -51.167 32.5 -88.5c0 -30.667 -9 -57.334 -27 -80.001s-42.667 -39.334 -74 -50.001
c28.667 -24 43 -55.667 43 -95c0 -43.333 -16.833 -78 -50.5 -104s-77.834 -39 -132.501 -39zM347.002 227.001c27.333 3.33301 48.999 12.168 64.999 26.501s24 32.166 24 53.499c0 19.333 -6.5 35.333 -19.5 48s-33.833 23.667 -62.5 33l-117 37
c-2 1.33301 -4.16699 2.33301 -6.5 3s-4.16602 1.33398 -5.49902 2.00098c-28 -2.66699 -50 -11.167 -66 -25.5s-24 -32.5 -24 -54.5c0 -18.667 6.33301 -34.167 19 -46.5s33.667 -23.833 63 -34.5l116 -37c2.66699 -0.666992 5 -1.33398 7 -2.00098s4.33301 -1.66699 7 -3z
" />
    <glyph glyph-name="dieresis" unicode="&#xa8;" 
d="M203 608c-16.667 0 -30.667 5.5 -42 16.5s-17 24.833 -17 41.5s5.66699 30.5 17 41.5s25.333 16.5 42 16.5s30.667 -5.5 42 -16.5s17 -24.833 17 -41.5c0 -16 -5.66699 -29.667 -17 -41s-25.333 -17 -42 -17zM397 608c-16.667 0 -30.667 5.5 -42 16.5
s-17 24.833 -17 41.5s5.66699 30.5 17 41.5s25.333 16.5 42 16.5s30.667 -5.5 42 -16.5s17 -24.833 17 -41.5c0 -16 -5.66699 -29.667 -17 -41s-25.333 -17 -42 -17z" />
    <glyph glyph-name="copyright" unicode="&#xa9;" horiz-adv-x="798" 
d="M408 164c-34.667 0 -66.1641 8.33496 -94.4971 25.002s-50.666 39 -66.999 67s-24.5 59.333 -24.5 94c0 35.333 8.16699 67.166 24.5 95.499s38.666 50.833 66.999 67.5s59.833 25 94.5 25c28 0 54.833 -5.33301 80.5 -16s47.5 -26 65.5 -46l-48 -52
c-14 15.333 -29 26.5 -45 33.5s-33 10.5 -51 10.5c-20.667 0 -39.334 -5.16699 -56.001 -15.5s-29.834 -24.333 -39.501 -42s-14.5 -37.834 -14.5 -60.501c0 -22 4.83301 -41.833 14.5 -59.5s23 -31.5 40 -41.5s35.833 -15 56.5 -15c18 0 34.667 3.5 50 10.5
s29.666 17.5 42.999 31.5l49 -51c-19.333 -20 -41.333 -35.167 -66 -45.5s-51 -15.5 -79 -15.5zM399.003 -10.998c-50.667 0 -97.668 9.16602 -141.001 27.499s-81.333 44 -114 77s-58 71.333 -76 115s-27 90.834 -27 141.501s9 97.834 27 141.501s43.333 82 76 115
s70.667 58.667 114 77s90.333 27.5 141 27.5c50 0 96.833 -9.16699 140.5 -27.5s81.667 -43.833 114 -76.5s57.666 -70.834 75.999 -114.501s27.5 -91.167 27.5 -142.5c0 -50.667 -9.16699 -98 -27.5 -142s-43.666 -82.333 -75.999 -115s-70.166 -58.167 -113.499 -76.5
s-90.333 -27.5 -141 -27.5zM399.002 41.001c42 0 81.333 8 118 24s68.834 38.167 96.501 66.5s49.167 61.166 64.5 98.499s23 77.333 23 120s-7.66699 82.667 -23 120s-36.833 70.166 -64.5 98.499s-59.834 50.5 -96.501 66.5s-76.334 24 -119.001 24
c-41.333 0 -80.166 -8 -116.499 -24s-68.166 -38.167 -95.499 -66.5s-48.833 -61.166 -64.5 -98.499s-23.5 -77.333 -23.5 -120s7.83301 -82.667 23.5 -120s37.167 -70.166 64.5 -98.499s59.166 -50.5 95.499 -66.5s75.5 -24 117.5 -24z" />
    <glyph glyph-name="ordfeminine" unicode="&#xaa;" horiz-adv-x="420" 
d="M173 313c-42 0 -76.165 10.832 -102.498 32.499s-39.5 49.834 -39.5 84.501c0 36 14 64.333 42 85s66.333 31 115 31c18 0 35.5 -1.66699 52.5 -5s33.167 -8 48.5 -14v37c0 52 -30 78 -90 78c-17.333 0 -35.333 -2.5 -54 -7.5s-40.334 -12.833 -65.001 -23.5l-29 60
c29.333 14 56.833 24.167 82.5 30.5s51.5 9.5 77.5 9.5c50.667 0 89.667 -12 117 -36s41 -58.333 41 -103v-252h-80v31c-32.667 -25.333 -71.334 -38 -116.001 -38zM191.002 372.999c19.333 0 37.168 2.83398 53.501 8.50098s31.166 13.5 44.499 23.5v65
c-13.333 7.33301 -27.833 12.666 -43.5 15.999s-32.5 5 -50.5 5c-26.667 0 -47.667 -5.33301 -63 -16s-23 -25 -23 -43s7.5 -32.333 22.5 -43s34.833 -16 59.5 -16z" />
    <glyph glyph-name="guillemotleft" unicode="&#xab;" horiz-adv-x="631" 
d="M264 0l-238 255l238 254h104l-232 -252l235 -257h-107zM488 0l-238 255l238 254h104l-232 -252l235 -257h-107z" />
    <glyph glyph-name="uni00AC" unicode="&#xac;" horiz-adv-x="587" 
d="M449 0v248h-385v78h465v-326h-80z" />
    <glyph glyph-name="uni00AD" unicode="&#xad;" horiz-adv-x="459" 
d="M46 239v87h360v-87h-360z" />
    <glyph glyph-name="registered" unicode="&#xae;" horiz-adv-x="488" 
d="M244 309c-38 0 -72.167 9 -102.5 27s-54.5 42.5 -72.5 73.5s-27 65.167 -27 102.5c0 38.667 9 73.334 27 104.001s42.333 55 73 73s64.667 27 102 27s71.333 -9 102 -27s55 -42.333 73 -73s27 -65.334 27 -104.001c0 -37.333 -9 -71.5 -27 -102.5
s-42.333 -55.5 -73 -73.5s-64.667 -27 -102 -27zM244 347c31.333 0 59 7.16504 83 21.498s42.833 34 56.5 59s20.5 53.167 20.5 84.5c0 32 -6.83301 60.5 -20.5 85.5s-32.5 44.5 -56.5 58.5s-51.667 21 -83 21c-30.667 0 -58.167 -7 -82.5 -21s-43.333 -33.5 -57 -58.5
s-20.5 -53.167 -20.5 -84.5s6.83301 -59.666 20.5 -84.999s32.667 -45.166 57 -59.499s51.833 -21.5 82.5 -21.5zM175 418.998v187.999h79c19.333 0 34.833 -5.16699 46.5 -15.5s17.5 -24.5 17.5 -42.5c0 -10.667 -3.16699 -20.667 -9.5 -30s-14.5 -16.666 -24.5 -21.999
l45 -78h-43l-40 70h-31v-70h-40zM247 575.997h-32v-58h31c21.333 0 32 9.66699 32 29c0 9.33301 -2.5 16.5 -7.5 21.5s-12.833 7.5 -23.5 7.5z" />
    <glyph glyph-name="macron" unicode="&#xaf;" 
d="M151 622v67h298v-67h-298z" />
    <glyph glyph-name="degree" unicode="&#xb0;" horiz-adv-x="403" 
d="M202 419c-27.333 0 -52.166 6.66699 -74.499 20s-40 31.166 -53 53.499s-19.5 46.5 -19.5 72.5c0 27.333 6.5 51.833 19.5 73.5s30.667 39.167 53 52.5s47.166 20 74.499 20s52 -6.66699 74 -20s39.5 -30.833 52.5 -52.5s19.5 -46.167 19.5 -73.5
c0 -26 -6.5 -50.167 -19.5 -72.5s-30.5 -40.166 -52.5 -53.499s-46.667 -20 -74 -20zM202 478c23.333 0 43.666 8.5 60.999 25.5s26 37.5 26 61.5s-8.66699 44.667 -26 62s-37.666 26 -60.999 26c-24 0 -44.5 -8.66699 -61.5 -26s-25.5 -38 -25.5 -62s8.5 -44.5 25.5 -61.5
s37.5 -25.5 61.5 -25.5z" />
    <glyph glyph-name="plusminus" unicode="&#xb1;" 
d="M94 -1v77h412v-77h-412zM260 184v168h-166v78h166v168h80v-168h166v-78h-166v-168h-80z" />
    <glyph glyph-name="twosuperior" unicode="&#xb2;" horiz-adv-x="297" 
d="M26 350l-0.000976562 47l138 123c16.667 15.333 28.334 28.5 35.001 39.5s10 22.5 10 34.5c0 16 -6 29.167 -18 39.5s-27.667 15.5 -47 15.5c-16 0 -31.333 -3.33301 -46 -10s-30.667 -17.667 -48 -33l-37 43c20.667 18.667 42 32.667 64 42s45 14 69 14
c37.333 0 67.833 -9.83301 91.5 -29.5s35.5 -45.5 35.5 -77.5c0 -20 -5 -38.667 -15 -56s-27.667 -37.333 -53 -60l-86 -77h158v-55h-251z" />
    <glyph glyph-name="threesuperior" unicode="&#xb3;" horiz-adv-x="319" 
d="M154 345c-27.333 0 -52.8301 4.66699 -76.4971 14s-43.834 22.666 -60.501 39.999l44 41c14 -14.667 28 -24.834 42 -30.501s31 -8.5 51 -8.5c22 0 39.667 4.66699 53 14s20 21.666 20 36.999c0 14 -6.16699 24.833 -18.5 32.5s-28.833 11.5 -49.5 11.5h-32v53h26
c18 0 33 5 45 15s18 22.333 18 37c0 14 -5.83301 25.5 -17.5 34.5s-26.834 13.5 -45.501 13.5c-18 0 -33.5 -3.16699 -46.5 -9.5s-27.167 -17.166 -42.5 -32.499l-44 41c17.333 18 37.833 32.167 61.5 42.5s48.167 15.5 73.5 15.5c37.333 0 68 -9.16699 92 -27.5
s35.667 -41.833 35 -70.5c0.666992 -17.333 -3.83301 -33.166 -13.5 -47.499s-22.834 -25.5 -39.501 -33.5c19.333 -6.66699 35 -17 47 -31s18 -30.333 18 -49c0 -29.333 -13.167 -53.666 -39.5 -72.999s-59.833 -29 -100.5 -29z" />
    <glyph glyph-name="acute" unicode="&#xb4;" 
d="M229 603l92 122h121l-129 -122h-84z" />
    <glyph glyph-name="uni00B5" unicode="&#xb5;" horiz-adv-x="577" 
d="M63 -204l-0.000976562 712.999h99v-305c0 -40 11.5 -71.667 34.5 -95s53.833 -35 92.5 -35c27.333 0 51.5 6.16699 72.5 18.5s38.5 29.833 52.5 52.5v364h100v-509h-100v69c-18.667 -26 -41 -45.5 -67 -58.5s-55.333 -19.5 -88 -19.5c-18.667 0 -36.167 2.33301 -52.5 7
s-31.166 11.334 -44.499 20.001v-222h-99z" />
    <glyph glyph-name="paragraph" unicode="&#xb6;" horiz-adv-x="671" 
d="M316 0v274h-50c-45.333 0 -85.5 9 -120.5 27s-62.333 42.833 -82 74.5s-29.5 68.167 -29.5 109.5c0 43.333 9.66699 81 29 113s46.5 57 81.5 75s75.167 27 120.5 27h334v-700h-87v274h-109v-274h-87zM403 356h109v261h-109v-261zM264 356h52v261h-52
c-41.333 0 -74.666 -11.833 -99.999 -35.5s-38 -55.167 -38 -94.5s12.667 -71 38 -95s58.666 -36 99.999 -36z" />
    <glyph glyph-name="periodcentered" unicode="&#xb7;" horiz-adv-x="250" 
d="M125 220c-17.333 0 -32.166 6.16699 -44.499 18.5s-18.5 27.166 -18.5 44.499c0 18 6.16699 33.167 18.5 45.5s27.166 18.5 44.499 18.5s32.166 -6.16699 44.499 -18.5s18.5 -27.5 18.5 -45.5c0 -17.333 -6.16699 -32.166 -18.5 -44.499s-27.166 -18.5 -44.499 -18.5z
" />
    <glyph glyph-name="cedilla" unicode="&#xb8;" 
d="M290 -231c-47.333 0 -86.667 14.334 -118 43.001l36 38c25.333 -20.667 52.333 -31 81 -31c19.333 0 34.333 4.16699 45 12.5s16 19.166 16 32.499s-5.66699 23.833 -17 31.5s-27 11.5 -47 11.5h-34l27 93h53l-15 -51c29.333 -2 52.5 -10.667 69.5 -26s25.5 -35 25.5 -59
c0 -27.333 -11.5 -50 -34.5 -68s-52.167 -27 -87.5 -27z" />
    <glyph glyph-name="onesuperior" unicode="&#xb9;" horiz-adv-x="177" 
d="M86 350v283l-67 -27v56l91 38h41v-350h-65z" />
    <glyph glyph-name="ordmasculine" unicode="&#xba;" horiz-adv-x="472" 
d="M236 311c-37.333 0 -71.166 8.83203 -101.499 26.499s-54.5 41.667 -72.5 72s-27 64.166 -27 101.499s9 71 27 101s42.167 54 72.5 72s64.166 27 101.499 27s71.166 -8.83301 101.499 -26.5s54.5 -41.667 72.5 -72s27 -64.166 27 -101.499s-9 -71.166 -27 -101.499
s-42.167 -54.333 -72.5 -72s-64.166 -26.5 -101.499 -26.5zM235 381.999c23.333 0 44 5.66699 62 17s32.333 26.833 43 46.5s16 41.167 16 64.5c0 24.667 -5.33301 46.834 -16 66.501s-25 35.167 -43 46.5s-38.333 17 -61 17s-43.167 -5.66699 -61.5 -17
s-32.833 -26.833 -43.5 -46.5s-16 -41.834 -16 -66.501c0 -23.333 5.33301 -44.833 16 -64.5s25.167 -35.167 43.5 -46.5s38.5 -17 60.5 -17z" />
    <glyph glyph-name="guillemotright" unicode="&#xbb;" horiz-adv-x="631" 
d="M367 509l238 -255l-238 -254h-104l232 252l-235 257h107zM142 509l238 -255l-238 -254h-104l232 252l-235 257h107z" />
    <glyph glyph-name="onequarter" unicode="&#xbc;" horiz-adv-x="629" 
d="M506 0v83h-197v53l188 214h75v-212h43v-55h-43v-83h-66zM384 138h122v139zM86 350v283l-67 -27v56l91 38h41v-350h-65zM44 1l394 700h79l-395 -700h-78z" />
    <glyph glyph-name="onehalf" unicode="&#xbd;" horiz-adv-x="660" 
d="M86 350v283l-67 -27v56l91 38h41v-350h-65zM44 0l394 700h79l-395 -700h-78zM389 0l-0.000976562 47l138 123c16.667 15.333 28.334 28.5 35.001 39.5s10 22.5 10 34.5c0 16 -6 29.167 -18 39.5s-27.667 15.5 -47 15.5c-16 0 -31.333 -3.33301 -46 -10
s-30.667 -17.667 -48 -33l-37 43c20.667 18.667 42 32.667 64 42s45 14 69 14c37.333 0 67.833 -9.83301 91.5 -29.5s35.5 -45.5 35.5 -77.5c0 -20 -5 -38.667 -15 -56s-27.667 -37.333 -53 -60l-86 -77h158v-55h-251z" />
    <glyph glyph-name="threequarters" unicode="&#xbe;" horiz-adv-x="722" 
d="M599 0v83h-197v53l188 214h75v-212h43v-55h-43v-83h-66zM477 138h122v139zM154 345c-27.333 0 -52.8301 4.66699 -76.4971 14s-43.834 22.666 -60.501 39.999l44 41c14 -14.667 28 -24.834 42 -30.501s31 -8.5 51 -8.5c22 0 39.667 4.66699 53 14s20 21.666 20 36.999
c0 14 -6.16699 24.833 -18.5 32.5s-28.833 11.5 -49.5 11.5h-32v53h26c18 0 33 5 45 15s18 22.333 18 37c0 14 -5.83301 25.5 -17.5 34.5s-26.834 13.5 -45.501 13.5c-18 0 -33.5 -3.16699 -46.5 -9.5s-27.167 -17.166 -42.5 -32.499l-44 41
c17.333 18 37.833 32.167 61.5 42.5s48.167 15.5 73.5 15.5c37.333 0 68 -9.16699 92 -27.5s35.667 -41.833 35 -70.5c0.666992 -17.333 -3.83301 -33.166 -13.5 -47.499s-22.834 -25.5 -39.501 -33.5c19.333 -6.66699 35 -17 47 -31s18 -30.333 18 -49
c0 -29.333 -13.167 -53.666 -39.5 -72.999s-59.833 -29 -100.5 -29zM138.003 0l394 700h79l-395 -700h-78z" />
    <glyph glyph-name="questiondown" unicode="&#xbf;" horiz-adv-x="514" 
d="M326 292c1.33301 -30.667 -0.330078 -57.0029 -4.99707 -79.0029s-13.167 -41.667 -25.5 -59s-28.833 -33.666 -49.5 -48.999l-47 -33c-26 -18.667 -44.333 -35.834 -55 -51.501s-16 -33.167 -16 -52.5c0 -18.667 5.83301 -35 17.5 -49s27.167 -25.333 46.5 -34
s41.333 -13 66 -13c31.333 0 60.666 7.66699 87.999 23s50.333 37 69 65l80 -41c-17.333 -28 -38.5 -52 -63.5 -72s-52.5 -35.167 -82.5 -45.5s-62 -15.5 -96 -15.5c-42.667 0 -80.667 7.83301 -114 23.5s-59.833 36.834 -79.5 63.501s-29.5 57.334 -29.5 92.001
c0 22.667 3.66699 43.334 11 62.001s19.666 36.834 36.999 54.501s41.333 37.167 72 58.5l31 22c23.333 15.333 39.666 33.166 48.999 53.499s13 45.833 11 76.5h85zM283.004 503.997c17.333 0 32.166 -6.16699 44.499 -18.5s18.5 -27.166 18.5 -44.499
s-6.16699 -32.166 -18.5 -44.499s-27.166 -18.5 -44.499 -18.5s-32.166 6.16699 -44.499 18.5s-18.5 27.166 -18.5 44.499s6.16699 32.166 18.5 44.499s27.166 18.5 44.499 18.5z" />
    <glyph glyph-name="Agrave" unicode="&#xc0;" horiz-adv-x="701" 
d="M1 0l289 700h124l286 -700h-114l-81 205h-313l-82 -205h-109zM226 292h245l-122 308zM328 794l-128 122h122l90 -122h-84z" />
    <glyph glyph-name="Aacute" unicode="&#xc1;" horiz-adv-x="701" 
d="M1 0l289 700h124l286 -700h-114l-81 205h-313l-82 -205h-109zM226 292h245l-122 308zM280 794l92 122h121l-129 -122h-84z" />
    <glyph glyph-name="Acircumflex" unicode="&#xc2;" horiz-adv-x="701" 
d="M1 0l289 700h124l286 -700h-114l-81 205h-313l-82 -205h-109zM226 292h245l-122 308zM430 791l-80 77l-79 -77h-81l109 127h104l109 -127h-82z" />
    <glyph glyph-name="Atilde" unicode="&#xc3;" horiz-adv-x="701" 
d="M1 0l289 700h124l286 -700h-114l-81 205h-313l-82 -205h-109zM226 292h245l-122 308zM238 786l-66.001 13c16 72.667 50.333 109 103 109c18 0 35.667 -4.33301 53 -13s33.666 -17.5 48.999 -26.5s30 -13.5 44 -13.5c11.333 0 20.333 4.16699 27 12.5
s12.334 22.833 17.001 43.5l64 -13c-7.33301 -36.667 -19.666 -64 -36.999 -82s-39 -27 -65 -27c-17.333 0 -34.833 4.5 -52.5 13.5l-50 26.5c-15.667 8.66699 -30.167 13 -43.5 13c-12 0 -21.167 -4.33301 -27.5 -13s-11.5 -23 -15.5 -43z" />
    <glyph glyph-name="Adieresis" unicode="&#xc4;" horiz-adv-x="701" 
d="M1 0l289 700h124l286 -700h-114l-81 205h-313l-82 -205h-109zM226 292h245l-122 308zM254 799c-16.667 0 -30.667 5.5 -42 16.5s-17 24.833 -17 41.5s5.66699 30.5 17 41.5s25.333 16.5 42 16.5s30.667 -5.5 42 -16.5s17 -24.833 17 -41.5
c0 -16 -5.66699 -29.667 -17 -41s-25.333 -17 -42 -17zM448 799c-16.667 0 -30.667 5.5 -42 16.5s-17 24.833 -17 41.5s5.66699 30.5 17 41.5s25.333 16.5 42 16.5s30.667 -5.5 42 -16.5s17 -24.833 17 -41.5c0 -16 -5.66699 -29.667 -17 -41s-25.333 -17 -42 -17z" />
    <glyph glyph-name="Aring" unicode="&#xc5;" horiz-adv-x="701" 
d="M1 0l289 700h124l286 -700h-114l-81 205h-313l-82 -205h-109zM226 292h245l-122 308zM351 775c-21.333 0 -40.833 5.16699 -58.5 15.5s-31.667 24.333 -42 42s-15.5 36.834 -15.5 57.501s5.16699 39.667 15.5 57s24.333 31.333 42 42s37.167 16 58.5 16
s40.833 -5.33301 58.5 -16s31.667 -24.667 42 -42s15.5 -36.333 15.5 -57s-5.16699 -39.834 -15.5 -57.501s-24.333 -31.667 -42 -42s-37.167 -15.5 -58.5 -15.5zM351 823c18.667 0 34.5 6.5 47.5 19.5s19.5 28.833 19.5 47.5s-6.5 34.5 -19.5 47.5s-28.833 19.5 -47.5 19.5
s-34.5 -6.5 -47.5 -19.5s-19.5 -28.833 -19.5 -47.5s6.5 -34.5 19.5 -47.5s28.833 -19.5 47.5 -19.5z" />
    <glyph glyph-name="AE" unicode="&#xc6;" horiz-adv-x="965" 
d="M1 0l290 700h637v-92h-474l84 -210h255v-89h-220l86 -217h269v-92h-342l-81 205h-313l-82 -205h-109zM226 292h245l-121 307z" />
    <glyph glyph-name="Ccedilla" unicode="&#xc7;" horiz-adv-x="720" 
d="M392 -231c-48 0 -87.334 14.334 -118.001 43.001l36 38c24.667 -20.667 51.667 -31 81 -31c18.667 0 33.334 4.16699 44.001 12.5s16 19.166 16 32.499s-5.66699 23.833 -17 31.5s-26.666 11.5 -45.999 11.5h-35l25 84c-48 3.33301 -92.5 14.833 -133.5 34.5
s-76.833 45.5 -107.5 77.5s-54.334 69.167 -71.001 111.5s-25 87.5 -25 135.5c0 50.667 9.16699 97.834 27.5 141.501s44.333 82 78 115s72.834 58.667 117.501 77s92.667 27.5 144 27.5c36.667 0 72.5 -4.83301 107.5 -14.5s67.333 -23.5 97 -41.5s55.5 -39.667 77.5 -65
l-70 -72c-26 31.333 -57.667 55.166 -95 71.499s-76.333 24.5 -117 24.5c-37.333 0 -71.833 -6.66699 -103.5 -20s-59.167 -31.833 -82.5 -55.5s-41.5 -51.5 -54.5 -83.5s-19.5 -67 -19.5 -105c0 -37.333 6.5 -72 19.5 -104s31.5 -60 55.5 -84s52 -42.667 84 -56
s66.667 -20 104 -20c40.667 0 79.167 8.16699 115.5 24.5s67.166 39.5 92.499 69.5l69 -70c-32 -35.333 -70.5 -63.333 -115.5 -84s-92.5 -32.667 -142.5 -36l-11 -41c29.333 -2 52.5 -10.667 69.5 -26s25.5 -35 25.5 -59c0 -27.333 -11.667 -50 -35 -68
s-52.333 -27 -87 -27z" />
    <glyph glyph-name="Egrave" unicode="&#xc8;" horiz-adv-x="628" 
d="M71 0v700h516v-92h-411v-210h270v-89h-270v-217h415v-92h-520zM319 794l-128 122h122l90 -122h-84z" />
    <glyph glyph-name="Eacute" unicode="&#xc9;" horiz-adv-x="628" 
d="M71 0v700h516v-92h-411v-210h270v-89h-270v-217h415v-92h-520zM271 794l92 122h121l-129 -122h-84z" />
    <glyph glyph-name="Ecircumflex" unicode="&#xca;" horiz-adv-x="628" 
d="M71 0v700h516v-92h-411v-210h270v-89h-270v-217h415v-92h-520zM421 791l-80 77l-79 -77h-81l109 127h104l109 -127h-82z" />
    <glyph glyph-name="Edieresis" unicode="&#xcb;" horiz-adv-x="628" 
d="M71 0v700h516v-92h-411v-210h270v-89h-270v-217h415v-92h-520zM245 799c-16.667 0 -30.667 5.5 -42 16.5s-17 24.833 -17 41.5s5.66699 30.5 17 41.5s25.333 16.5 42 16.5s30.667 -5.5 42 -16.5s17 -24.833 17 -41.5c0 -16 -5.66699 -29.667 -17 -41s-25.333 -17 -42 -17
zM439 799c-16.667 0 -30.667 5.5 -42 16.5s-17 24.833 -17 41.5s5.66699 30.5 17 41.5s25.333 16.5 42 16.5s30.667 -5.5 42 -16.5s17 -24.833 17 -41.5c0 -16 -5.66699 -29.667 -17 -41s-25.333 -17 -42 -17z" />
    <glyph glyph-name="Igrave" unicode="&#xcc;" horiz-adv-x="248" 
d="M71 0v700h105v-700h-105zM101 794l-128 122h122l90 -122h-84z" />
    <glyph glyph-name="Iacute" unicode="&#xcd;" horiz-adv-x="248" 
d="M71 0v700h105v-700h-105zM53 794l92 122h121l-129 -122h-84z" />
    <glyph glyph-name="Icircumflex" unicode="&#xce;" horiz-adv-x="248" 
d="M71 0v700h105v-700h-105zM203 791l-80 77l-79 -77h-81l109 127h104l109 -127h-82z" />
    <glyph glyph-name="Idieresis" unicode="&#xcf;" horiz-adv-x="248" 
d="M71 0v700h105v-700h-105zM27 799c-16.667 0 -30.667 5.5 -42 16.5s-17 24.833 -17 41.5s5.66699 30.5 17 41.5s25.333 16.5 42 16.5s30.667 -5.5 42 -16.5s17 -24.833 17 -41.5c0 -16 -5.66699 -29.667 -17 -41s-25.333 -17 -42 -17zM221 799
c-16.667 0 -30.667 5.5 -42 16.5s-17 24.833 -17 41.5s5.66699 30.5 17 41.5s25.333 16.5 42 16.5s30.667 -5.5 42 -16.5s17 -24.833 17 -41.5c0 -16 -5.66699 -29.667 -17 -41s-25.333 -17 -42 -17z" />
    <glyph glyph-name="Eth" unicode="&#xd0;" horiz-adv-x="755" 
d="M98 0v306.999h-84v86h84v307h247c52.667 0 101.334 -8.83301 146.001 -26.5s83.667 -42.167 117 -73.5s59.166 -68.333 77.499 -111s27.5 -89 27.5 -139c0 -50.667 -9.16699 -97.167 -27.5 -139.5s-44 -79.166 -77 -110.499s-72 -55.833 -117 -73.5
s-93.833 -26.5 -146.5 -26.5h-247zM203 93.999h142.998c36.667 0 70.834 6.5 102.501 19.5s59.334 31 83.001 54s42 50 55 81s19.5 64.5 19.5 100.5c0 36.667 -6.66699 70.667 -20 102s-31.666 58.5 -54.999 81.5s-50.833 41 -82.5 54s-65.834 19.5 -102.501 19.5h-143v-213
h179v-86h-179v-213z" />
    <glyph glyph-name="Ntilde" unicode="&#xd1;" horiz-adv-x="735" 
d="M71 0v700h102l391 -520v520h99v-700h-92l-400 536v-536h-100zM254 786l-66.001 13c16 72.667 50.333 109 103 109c18 0 35.667 -4.33301 53 -13s33.666 -17.5 48.999 -26.5s30 -13.5 44 -13.5c11.333 0 20.333 4.16699 27 12.5s12.334 22.833 17.001 43.5l64 -13
c-7.33301 -36.667 -19.666 -64 -36.999 -82s-39 -27 -65 -27c-17.333 0 -34.833 4.5 -52.5 13.5l-50 26.5c-15.667 8.66699 -30.167 13 -43.5 13c-12 0 -21.167 -4.33301 -27.5 -13s-11.5 -23 -15.5 -43z" />
    <glyph glyph-name="Ograve" unicode="&#xd2;" horiz-adv-x="810" 
d="M405 -11c-50.667 0 -98 9.16699 -142 27.5s-82.833 44 -116.5 77s-59.667 71.333 -78 115s-27.5 90.834 -27.5 141.501s9.16699 97.834 27.5 141.501s44.333 82 78 115s72.5 58.667 116.5 77s91.333 27.5 142 27.5s98.167 -9.16699 142.5 -27.5s83.166 -44 116.499 -77
s59.333 -71.333 78 -115s28 -90.834 28 -141.501s-9.33301 -97.834 -28 -141.501s-44.667 -82 -78 -115s-72.166 -58.667 -116.499 -77s-91.833 -27.5 -142.5 -27.5zM406 86c36 0 69.5 6.66797 100.5 20.001s58.167 31.833 81.5 55.5s41.666 51.667 54.999 84
s20 67.166 20 104.499c0 38 -6.66699 73 -20 105s-31.666 59.833 -54.999 83.5s-50.5 42.167 -81.5 55.5s-64.5 20 -100.5 20c-36.667 0 -70.667 -6.66699 -102 -20s-58.666 -31.833 -81.999 -55.5s-41.5 -51.5 -54.5 -83.5s-19.5 -66.667 -19.5 -104
c0 -38 6.5 -73.167 19.5 -105.5s31.167 -60.333 54.5 -84s50.666 -42.167 81.999 -55.5s65.333 -20 102 -20zM383 794.001l-128 122h122l90 -122h-84z" />
    <glyph glyph-name="Oacute" unicode="&#xd3;" horiz-adv-x="810" 
d="M405 -11c-50.667 0 -98 9.16699 -142 27.5s-82.833 44 -116.5 77s-59.667 71.333 -78 115s-27.5 90.834 -27.5 141.501s9.16699 97.834 27.5 141.501s44.333 82 78 115s72.5 58.667 116.5 77s91.333 27.5 142 27.5s98.167 -9.16699 142.5 -27.5s83.166 -44 116.499 -77
s59.333 -71.333 78 -115s28 -90.834 28 -141.501s-9.33301 -97.834 -28 -141.501s-44.667 -82 -78 -115s-72.166 -58.667 -116.499 -77s-91.833 -27.5 -142.5 -27.5zM406 86c36 0 69.5 6.66797 100.5 20.001s58.167 31.833 81.5 55.5s41.666 51.667 54.999 84
s20 67.166 20 104.499c0 38 -6.66699 73 -20 105s-31.666 59.833 -54.999 83.5s-50.5 42.167 -81.5 55.5s-64.5 20 -100.5 20c-36.667 0 -70.667 -6.66699 -102 -20s-58.666 -31.833 -81.999 -55.5s-41.5 -51.5 -54.5 -83.5s-19.5 -66.667 -19.5 -104
c0 -38 6.5 -73.167 19.5 -105.5s31.167 -60.333 54.5 -84s50.666 -42.167 81.999 -55.5s65.333 -20 102 -20zM335 794.001l92 122h121l-129 -122h-84z" />
    <glyph glyph-name="Ocircumflex" unicode="&#xd4;" horiz-adv-x="810" 
d="M405 -11c-50.667 0 -98 9.16699 -142 27.5s-82.833 44 -116.5 77s-59.667 71.333 -78 115s-27.5 90.834 -27.5 141.501s9.16699 97.834 27.5 141.501s44.333 82 78 115s72.5 58.667 116.5 77s91.333 27.5 142 27.5s98.167 -9.16699 142.5 -27.5s83.166 -44 116.499 -77
s59.333 -71.333 78 -115s28 -90.834 28 -141.501s-9.33301 -97.834 -28 -141.501s-44.667 -82 -78 -115s-72.166 -58.667 -116.499 -77s-91.833 -27.5 -142.5 -27.5zM406 86c36 0 69.5 6.66797 100.5 20.001s58.167 31.833 81.5 55.5s41.666 51.667 54.999 84
s20 67.166 20 104.499c0 38 -6.66699 73 -20 105s-31.666 59.833 -54.999 83.5s-50.5 42.167 -81.5 55.5s-64.5 20 -100.5 20c-36.667 0 -70.667 -6.66699 -102 -20s-58.666 -31.833 -81.999 -55.5s-41.5 -51.5 -54.5 -83.5s-19.5 -66.667 -19.5 -104
c0 -38 6.5 -73.167 19.5 -105.5s31.167 -60.333 54.5 -84s50.666 -42.167 81.999 -55.5s65.333 -20 102 -20zM485 791.001l-80 77l-79 -77h-81l109 127h104l109 -127h-82z" />
    <glyph glyph-name="Otilde" unicode="&#xd5;" horiz-adv-x="810" 
d="M405 -11c-50.667 0 -98 9.16699 -142 27.5s-82.833 44 -116.5 77s-59.667 71.333 -78 115s-27.5 90.834 -27.5 141.501s9.16699 97.834 27.5 141.501s44.333 82 78 115s72.5 58.667 116.5 77s91.333 27.5 142 27.5s98.167 -9.16699 142.5 -27.5s83.166 -44 116.499 -77
s59.333 -71.333 78 -115s28 -90.834 28 -141.501s-9.33301 -97.834 -28 -141.501s-44.667 -82 -78 -115s-72.166 -58.667 -116.499 -77s-91.833 -27.5 -142.5 -27.5zM406 86c36 0 69.5 6.66797 100.5 20.001s58.167 31.833 81.5 55.5s41.666 51.667 54.999 84
s20 67.166 20 104.499c0 38 -6.66699 73 -20 105s-31.666 59.833 -54.999 83.5s-50.5 42.167 -81.5 55.5s-64.5 20 -100.5 20c-36.667 0 -70.667 -6.66699 -102 -20s-58.666 -31.833 -81.999 -55.5s-41.5 -51.5 -54.5 -83.5s-19.5 -66.667 -19.5 -104
c0 -38 6.5 -73.167 19.5 -105.5s31.167 -60.333 54.5 -84s50.666 -42.167 81.999 -55.5s65.333 -20 102 -20zM293 786.001l-66.001 13c16 72.667 50.333 109 103 109c18 0 35.667 -4.33301 53 -13s33.666 -17.5 48.999 -26.5s30 -13.5 44 -13.5
c11.333 0 20.333 4.16699 27 12.5s12.334 22.833 17.001 43.5l64 -13c-7.33301 -36.667 -19.666 -64 -36.999 -82s-39 -27 -65 -27c-17.333 0 -34.833 4.5 -52.5 13.5l-50 26.5c-15.667 8.66699 -30.167 13 -43.5 13c-12 0 -21.167 -4.33301 -27.5 -13s-11.5 -23 -15.5 -43z
" />
    <glyph glyph-name="Odieresis" unicode="&#xd6;" horiz-adv-x="810" 
d="M405 -11c-50.667 0 -98 9.16699 -142 27.5s-82.833 44 -116.5 77s-59.667 71.333 -78 115s-27.5 90.834 -27.5 141.501s9.16699 97.834 27.5 141.501s44.333 82 78 115s72.5 58.667 116.5 77s91.333 27.5 142 27.5s98.167 -9.16699 142.5 -27.5s83.166 -44 116.499 -77
s59.333 -71.333 78 -115s28 -90.834 28 -141.501s-9.33301 -97.834 -28 -141.501s-44.667 -82 -78 -115s-72.166 -58.667 -116.499 -77s-91.833 -27.5 -142.5 -27.5zM406 86c36 0 69.5 6.66797 100.5 20.001s58.167 31.833 81.5 55.5s41.666 51.667 54.999 84
s20 67.166 20 104.499c0 38 -6.66699 73 -20 105s-31.666 59.833 -54.999 83.5s-50.5 42.167 -81.5 55.5s-64.5 20 -100.5 20c-36.667 0 -70.667 -6.66699 -102 -20s-58.666 -31.833 -81.999 -55.5s-41.5 -51.5 -54.5 -83.5s-19.5 -66.667 -19.5 -104
c0 -38 6.5 -73.167 19.5 -105.5s31.167 -60.333 54.5 -84s50.666 -42.167 81.999 -55.5s65.333 -20 102 -20zM309 799.001c-16.667 0 -30.667 5.5 -42 16.5s-17 24.833 -17 41.5s5.66699 30.5 17 41.5s25.333 16.5 42 16.5s30.667 -5.5 42 -16.5s17 -24.833 17 -41.5
c0 -16 -5.66699 -29.667 -17 -41s-25.333 -17 -42 -17zM503 799.001c-16.667 0 -30.667 5.5 -42 16.5s-17 24.833 -17 41.5s5.66699 30.5 17 41.5s25.333 16.5 42 16.5s30.667 -5.5 42 -16.5s17 -24.833 17 -41.5c0 -16 -5.66699 -29.667 -17 -41s-25.333 -17 -42 -17z" />
    <glyph glyph-name="multiply" unicode="&#xd7;" 
d="M154 153l-47 51l144 154l-145 156l48 52l146 -156l146 155l48 -50l-146 -155l146 -156l-50 -52l-145 155z" />
    <glyph glyph-name="Oslash" unicode="&#xd8;" horiz-adv-x="810" 
d="M406 -11c-38 0 -74.165 5.16895 -108.498 15.502s-66.166 25.166 -95.499 44.499l-40 -49h-99l80 97c-32 32.667 -57 70.667 -75 114s-27 89.666 -27 138.999c0 50.667 9.16699 97.834 27.5 141.501s44.166 82 77.499 115s72.166 58.667 116.499 77
s92.166 27.5 143.499 27.5c36.667 0 71.667 -5 105 -15s64 -24 92 -42l38 46h101l-78 -94c32.667 -32 58.5 -70 77.5 -114s28.5 -91.333 28.5 -142s-9.33301 -97.834 -28 -141.501s-44.667 -82 -78 -115s-72 -58.667 -116 -77s-91.333 -27.5 -142 -27.5zM209.002 178.002
l329.998 399c-19.333 12 -40.166 21.167 -62.499 27.5s-45.833 9.5 -70.5 9.5c-36.667 0 -70.667 -6.66699 -102 -20s-58.666 -31.833 -81.999 -55.5s-41.5 -51.5 -54.5 -83.5s-19.5 -67 -19.5 -105c0 -33.333 5.5 -64.833 16.5 -94.5s25.833 -55.5 44.5 -77.5zM406 86.002
c36 0 69.501 6.66797 100.501 20.001s58.167 31.833 81.5 55.5s41.666 51.667 54.999 84s20 67.166 20 104.499c0 34.667 -5.66699 67 -17 97s-27 56.333 -47 79l-332 -400c19.333 -12.667 40.833 -22.5 64.5 -29.5s48.5 -10.5 74.5 -10.5z" />
    <glyph glyph-name="Ugrave" unicode="&#xd9;" horiz-adv-x="713" 
d="M356 -11c-60.667 0 -113.333 12.667 -158 38s-79 61.166 -103 107.499s-36 101.166 -36 164.499v401h105v-401c0 -43.333 7.83301 -81 23.5 -113s38 -56.667 67 -74s62.833 -26 101.5 -26c40 0 74.333 8.66699 103 26s50.834 42 66.501 74s23.5 69.667 23.5 113v401h105
v-401c0 -63.333 -12.167 -118.166 -36.5 -164.499s-58.833 -82.166 -103.5 -107.499s-97.334 -38 -158.001 -38zM334.001 794l-128 122h122l90 -122h-84z" />
    <glyph glyph-name="Uacute" unicode="&#xda;" horiz-adv-x="713" 
d="M356 -11c-60.667 0 -113.333 12.667 -158 38s-79 61.166 -103 107.499s-36 101.166 -36 164.499v401h105v-401c0 -43.333 7.83301 -81 23.5 -113s38 -56.667 67 -74s62.833 -26 101.5 -26c40 0 74.333 8.66699 103 26s50.834 42 66.501 74s23.5 69.667 23.5 113v401h105
v-401c0 -63.333 -12.167 -118.166 -36.5 -164.499s-58.833 -82.166 -103.5 -107.499s-97.334 -38 -158.001 -38zM285.001 794l92 122h121l-129 -122h-84z" />
    <glyph glyph-name="Ucircumflex" unicode="&#xdb;" horiz-adv-x="713" 
d="M356 -11c-60.667 0 -113.333 12.667 -158 38s-79 61.166 -103 107.499s-36 101.166 -36 164.499v401h105v-401c0 -43.333 7.83301 -81 23.5 -113s38 -56.667 67 -74s62.833 -26 101.5 -26c40 0 74.333 8.66699 103 26s50.834 42 66.501 74s23.5 69.667 23.5 113v401h105
v-401c0 -63.333 -12.167 -118.166 -36.5 -164.499s-58.833 -82.166 -103.5 -107.499s-97.334 -38 -158.001 -38zM435.001 791l-80 77l-79 -77h-81l109 127h104l109 -127h-82z" />
    <glyph glyph-name="Udieresis" unicode="&#xdc;" horiz-adv-x="713" 
d="M356 -11c-60.667 0 -113.333 12.667 -158 38s-79 61.166 -103 107.499s-36 101.166 -36 164.499v401h105v-401c0 -43.333 7.83301 -81 23.5 -113s38 -56.667 67 -74s62.833 -26 101.5 -26c40 0 74.333 8.66699 103 26s50.834 42 66.501 74s23.5 69.667 23.5 113v401h105
v-401c0 -63.333 -12.167 -118.166 -36.5 -164.499s-58.833 -82.166 -103.5 -107.499s-97.334 -38 -158.001 -38zM259.001 799c-16.667 0 -30.667 5.5 -42 16.5s-17 24.833 -17 41.5s5.66699 30.5 17 41.5s25.333 16.5 42 16.5s30.667 -5.5 42 -16.5s17 -24.833 17 -41.5
c0 -16 -5.66699 -29.667 -17 -41s-25.333 -17 -42 -17zM453.001 799c-16.667 0 -30.667 5.5 -42 16.5s-17 24.833 -17 41.5s5.66699 30.5 17 41.5s25.333 16.5 42 16.5s30.667 -5.5 42 -16.5s17 -24.833 17 -41.5c0 -16 -5.66699 -29.667 -17 -41s-25.333 -17 -42 -17z" />
    <glyph glyph-name="Yacute" unicode="&#xdd;" horiz-adv-x="666" 
d="M281 0v278l-282 422h122l215 -329l215 329h117l-282 -424v-276h-105zM263 794l92 122h121l-129 -122h-84z" />
    <glyph glyph-name="Thorn" unicode="&#xde;" horiz-adv-x="654" 
d="M71 0v699.998h105v-136h220c42.667 0 80.667 -9.33301 114 -28s59.666 -44.167 78.999 -76.5s29 -69.166 29 -110.499c0 -40 -9.66699 -76.167 -29 -108.5s-45.666 -57.666 -78.999 -75.999s-71.333 -27.5 -114 -27.5h-220v-137h-105zM176 225.998h208
c24.667 0 46.5 5.33301 65.5 16s34 25.167 45 43.5s16.5 39.166 16.5 62.499c0 24 -5.5 45.333 -16.5 64s-26 33.334 -45 44.001s-40.833 16 -65.5 16h-208v-246z" />
    <glyph glyph-name="germandbls" unicode="&#xdf;" horiz-adv-x="652" 
d="M443 -11c-78.667 0 -146.334 26.9971 -203.001 80.9971l55 56c44 -43.333 92.333 -65 145 -65c31.333 0 56.166 6.5 74.499 19.5s27.5 29.833 27.5 50.5c0 20 -5.5 35.833 -16.5 47.5s-30.5 21.834 -58.5 30.501l-82 27c-39.333 13.333 -67.333 28.333 -84 45
s-25 37.667 -25 63c0 23.333 6.16699 42.333 18.5 57s27.5 27.334 45.5 38.001s36.167 20.834 54.5 30.501s33.666 20.5 45.999 32.5s18.5 27 18.5 45c0 26.667 -13.167 48.334 -39.5 65.001s-60.166 25 -101.499 25c-51.333 0 -90.833 -14.167 -118.5 -42.5
s-41.5 -69.5 -41.5 -123.5v-471h-99v471c0 78 22.667 138.667 68 182s108.333 65 189 65c48.667 0 91 -6.5 127 -19.5s64 -31.5 84 -55.5s30 -52.333 30 -85c0 -26.667 -6.33301 -48.834 -19 -66.501s-28.167 -32.5 -46.5 -44.5s-36.666 -22.333 -54.999 -31
s-33.666 -17.5 -45.999 -26.5s-18.5 -19.833 -18.5 -32.5c0 -12 4 -21.5 12 -28.5s24 -14.833 48 -23.5l77 -26c44.667 -15.333 76.667 -33.833 96 -55.5s29 -49.834 29 -84.501c0 -45.333 -17.333 -81.666 -52 -108.999s-81 -41 -139 -41z" />
    <glyph glyph-name="agrave" unicode="&#xe0;" horiz-adv-x="532" 
d="M220 -9c-36.667 0 -69.002 6.5 -97.002 19.5s-50 31.167 -66 54.5s-24 50.333 -24 81c0 48 18.333 85.833 55 113.5s87 41.5 151 41.5c50 0 96.333 -9.66699 139 -29v54c0 36.667 -10.5 64 -31.5 82s-51.833 27 -92.5 27c-23.333 0 -47.666 -3.5 -72.999 -10.5
s-53.666 -17.833 -84.999 -32.5l-37 75c38.667 18 74.667 31.167 108 39.5s67 12.5 101 12.5c66 0 117.167 -15.667 153.5 -47s54.5 -76 54.5 -134v-338h-98v44c-22.667 -18 -47 -31.333 -73 -40s-54.333 -13 -85 -13zM128.998 148c0 -24.667 10.5 -44.501 31.5 -59.501
s48.5 -22.5 82.5 -22.5c26.667 0 51.167 3.83301 73.5 11.5s42.833 19.834 61.5 36.501v86c-19.333 11.333 -39.5 19.5 -60.5 24.5s-44.5 7.5 -70.5 7.5c-36.667 0 -65.5 -7.5 -86.5 -22.5s-31.5 -35.5 -31.5 -61.5zM234.998 602.999l-128 122h122l90 -122h-84z" />
    <glyph glyph-name="aacute" unicode="&#xe1;" horiz-adv-x="532" 
d="M220 -9c-36.667 0 -69.002 6.5 -97.002 19.5s-50 31.167 -66 54.5s-24 50.333 -24 81c0 48 18.333 85.833 55 113.5s87 41.5 151 41.5c50 0 96.333 -9.66699 139 -29v54c0 36.667 -10.5 64 -31.5 82s-51.833 27 -92.5 27c-23.333 0 -47.666 -3.5 -72.999 -10.5
s-53.666 -17.833 -84.999 -32.5l-37 75c38.667 18 74.667 31.167 108 39.5s67 12.5 101 12.5c66 0 117.167 -15.667 153.5 -47s54.5 -76 54.5 -134v-338h-98v44c-22.667 -18 -47 -31.333 -73 -40s-54.333 -13 -85 -13zM128.998 148c0 -24.667 10.5 -44.501 31.5 -59.501
s48.5 -22.5 82.5 -22.5c26.667 0 51.167 3.83301 73.5 11.5s42.833 19.834 61.5 36.501v86c-19.333 11.333 -39.5 19.5 -60.5 24.5s-44.5 7.5 -70.5 7.5c-36.667 0 -65.5 -7.5 -86.5 -22.5s-31.5 -35.5 -31.5 -61.5zM186.998 602.999l92 122h121l-129 -122h-84z" />
    <glyph glyph-name="acircumflex" unicode="&#xe2;" horiz-adv-x="532" 
d="M220 -9c-36.667 0 -69.002 6.5 -97.002 19.5s-50 31.167 -66 54.5s-24 50.333 -24 81c0 48 18.333 85.833 55 113.5s87 41.5 151 41.5c50 0 96.333 -9.66699 139 -29v54c0 36.667 -10.5 64 -31.5 82s-51.833 27 -92.5 27c-23.333 0 -47.666 -3.5 -72.999 -10.5
s-53.666 -17.833 -84.999 -32.5l-37 75c38.667 18 74.667 31.167 108 39.5s67 12.5 101 12.5c66 0 117.167 -15.667 153.5 -47s54.5 -76 54.5 -134v-338h-98v44c-22.667 -18 -47 -31.333 -73 -40s-54.333 -13 -85 -13zM128.998 148c0 -24.667 10.5 -44.501 31.5 -59.501
s48.5 -22.5 82.5 -22.5c26.667 0 51.167 3.83301 73.5 11.5s42.833 19.834 61.5 36.501v86c-19.333 11.333 -39.5 19.5 -60.5 24.5s-44.5 7.5 -70.5 7.5c-36.667 0 -65.5 -7.5 -86.5 -22.5s-31.5 -35.5 -31.5 -61.5zM336.998 599.999l-80 77l-79 -77h-81l109 127h104
l109 -127h-82z" />
    <glyph glyph-name="atilde" unicode="&#xe3;" horiz-adv-x="532" 
d="M220 -9c-36.667 0 -69.002 6.5 -97.002 19.5s-50 31.167 -66 54.5s-24 50.333 -24 81c0 48 18.333 85.833 55 113.5s87 41.5 151 41.5c50 0 96.333 -9.66699 139 -29v54c0 36.667 -10.5 64 -31.5 82s-51.833 27 -92.5 27c-23.333 0 -47.666 -3.5 -72.999 -10.5
s-53.666 -17.833 -84.999 -32.5l-37 75c38.667 18 74.667 31.167 108 39.5s67 12.5 101 12.5c66 0 117.167 -15.667 153.5 -47s54.5 -76 54.5 -134v-338h-98v44c-22.667 -18 -47 -31.333 -73 -40s-54.333 -13 -85 -13zM128.998 148c0 -24.667 10.5 -44.501 31.5 -59.501
s48.5 -22.5 82.5 -22.5c26.667 0 51.167 3.83301 73.5 11.5s42.833 19.834 61.5 36.501v86c-19.333 11.333 -39.5 19.5 -60.5 24.5s-44.5 7.5 -70.5 7.5c-36.667 0 -65.5 -7.5 -86.5 -22.5s-31.5 -35.5 -31.5 -61.5zM144.998 595.999l-66.001 13
c16 72.667 50.333 109 103 109c18 0 35.667 -4.33301 53 -13s33.666 -17.5 48.999 -26.5s30 -13.5 44 -13.5c11.333 0 20.333 4.16699 27 12.5s12.334 22.833 17.001 43.5l64 -13c-7.33301 -36.667 -19.666 -64 -36.999 -82s-39 -27 -65 -27
c-17.333 0 -34.833 4.5 -52.5 13.5l-50 26.5c-15.667 8.66699 -30.167 13 -43.5 13c-12 0 -21.167 -4.33301 -27.5 -13s-11.5 -23 -15.5 -43z" />
    <glyph glyph-name="adieresis" unicode="&#xe4;" horiz-adv-x="532" 
d="M220 -9c-36.667 0 -69.002 6.5 -97.002 19.5s-50 31.167 -66 54.5s-24 50.333 -24 81c0 48 18.333 85.833 55 113.5s87 41.5 151 41.5c50 0 96.333 -9.66699 139 -29v54c0 36.667 -10.5 64 -31.5 82s-51.833 27 -92.5 27c-23.333 0 -47.666 -3.5 -72.999 -10.5
s-53.666 -17.833 -84.999 -32.5l-37 75c38.667 18 74.667 31.167 108 39.5s67 12.5 101 12.5c66 0 117.167 -15.667 153.5 -47s54.5 -76 54.5 -134v-338h-98v44c-22.667 -18 -47 -31.333 -73 -40s-54.333 -13 -85 -13zM128.998 148c0 -24.667 10.5 -44.501 31.5 -59.501
s48.5 -22.5 82.5 -22.5c26.667 0 51.167 3.83301 73.5 11.5s42.833 19.834 61.5 36.501v86c-19.333 11.333 -39.5 19.5 -60.5 24.5s-44.5 7.5 -70.5 7.5c-36.667 0 -65.5 -7.5 -86.5 -22.5s-31.5 -35.5 -31.5 -61.5zM160.998 607.999c-16.667 0 -30.667 5.5 -42 16.5
s-17 24.833 -17 41.5s5.66699 30.5 17 41.5s25.333 16.5 42 16.5s30.667 -5.5 42 -16.5s17 -24.833 17 -41.5c0 -16 -5.66699 -29.667 -17 -41s-25.333 -17 -42 -17zM354.998 607.999c-16.667 0 -30.667 5.5 -42 16.5s-17 24.833 -17 41.5s5.66699 30.5 17 41.5
s25.333 16.5 42 16.5s30.667 -5.5 42 -16.5s17 -24.833 17 -41.5c0 -16 -5.66699 -29.667 -17 -41s-25.333 -17 -42 -17z" />
    <glyph glyph-name="aring" unicode="&#xe5;" horiz-adv-x="532" 
d="M220 -9c-36.667 0 -69.002 6.5 -97.002 19.5s-50 31.167 -66 54.5s-24 50.333 -24 81c0 48 18.333 85.833 55 113.5s87 41.5 151 41.5c50 0 96.333 -9.66699 139 -29v54c0 36.667 -10.5 64 -31.5 82s-51.833 27 -92.5 27c-23.333 0 -47.666 -3.5 -72.999 -10.5
s-53.666 -17.833 -84.999 -32.5l-37 75c38.667 18 74.667 31.167 108 39.5s67 12.5 101 12.5c66 0 117.167 -15.667 153.5 -47s54.5 -76 54.5 -134v-338h-98v44c-22.667 -18 -47 -31.333 -73 -40s-54.333 -13 -85 -13zM128.998 148c0 -24.667 10.5 -44.501 31.5 -59.501
s48.5 -22.5 82.5 -22.5c26.667 0 51.167 3.83301 73.5 11.5s42.833 19.834 61.5 36.501v86c-19.333 11.333 -39.5 19.5 -60.5 24.5s-44.5 7.5 -70.5 7.5c-36.667 0 -65.5 -7.5 -86.5 -22.5s-31.5 -35.5 -31.5 -61.5zM257.998 583.999c-21.333 0 -40.833 5.16699 -58.5 15.5
s-31.667 24.333 -42 42s-15.5 36.834 -15.5 57.501s5.16699 39.667 15.5 57s24.333 31.333 42 42s37.167 16 58.5 16s40.833 -5.33301 58.5 -16s31.667 -24.667 42 -42s15.5 -36.333 15.5 -57s-5.16699 -39.834 -15.5 -57.501s-24.333 -31.667 -42 -42
s-37.167 -15.5 -58.5 -15.5zM257.998 631.999c18.667 0 34.5 6.5 47.5 19.5s19.5 28.833 19.5 47.5s-6.5 34.5 -19.5 47.5s-28.833 19.5 -47.5 19.5s-34.5 -6.5 -47.5 -19.5s-19.5 -28.833 -19.5 -47.5s6.5 -34.5 19.5 -47.5s28.833 -19.5 47.5 -19.5z" />
    <glyph glyph-name="ae" unicode="&#xe6;" horiz-adv-x="915" 
d="M220 -9c-36.667 0 -68.8379 6.50098 -96.5049 19.501s-49.167 31.167 -64.5 54.5s-23 50.333 -23 81c0 48 18.333 85.833 55 113.5s86.667 41.5 150 41.5c49.333 0 95 -9 137 -27v52c0 36.667 -10.5 64 -31.5 82s-51.833 27 -92.5 27
c-23.333 0 -47.666 -3.5 -72.999 -10.5s-53.666 -17.833 -84.999 -32.5l-37 75c38.667 18 74.667 31.167 108 39.5s67 12.5 101 12.5c44.667 0 82.334 -7.33301 113.001 -22s53.334 -36.334 68.001 -65.001c22.667 26.667 49.834 47.667 81.501 63s65.834 23 102.501 23
c46.667 0 88.5 -11.833 125.5 -35.5s66.333 -55.667 88 -96s32.5 -85.833 32.5 -136.5v-28h-401c5.33301 -28 15.666 -53 30.999 -75s35.333 -39.333 60 -52s51.334 -19 80.001 -19c24.667 0 48.334 3.83301 71.001 11.5s42 18.834 58 33.501l64 -63
c-30 -22.667 -60.833 -39.5 -92.5 -50.5s-66.5 -16.5 -104.5 -16.5c-42.667 0 -81.834 8.66699 -117.501 26s-65.834 40.666 -90.501 69.999c-28.667 -32 -61 -56 -97 -72s-76 -24 -120 -24zM478.996 297.001l300.998 -0.00195312c-4.66699 26.667 -14 50.167 -28 70.5
s-31.5 36.333 -52.5 48s-43.833 17.5 -68.5 17.5c-25.333 0 -48.666 -5.66699 -69.999 -17s-39.166 -27.166 -53.499 -47.499s-23.833 -44.166 -28.5 -71.499zM242.994 65.999c31.333 0 60.167 6.33301 86.5 19s50.5 31.667 72.5 57c-4 8.66699 -7.5 17.834 -10.5 27.501
s-5.83301 19.5 -8.5 29.5c-19.333 11.333 -40 19.666 -62 24.999s-46 8 -72 8c-36 0 -64.667 -7.5 -86 -22.5s-32 -35.5 -32 -61.5c0 -24.667 10.333 -44.5 31 -59.5s47.667 -22.5 81 -22.5z" />
    <glyph glyph-name="ccedilla" unicode="&#xe7;" horiz-adv-x="521" 
d="M283 -231c-47.333 0 -86.6729 14.3359 -118.006 43.0029l37 38c24.667 -20.667 51.667 -31 81 -31c18.667 0 33.334 4.16699 44.001 12.5s16 19.166 16 32.499s-5.66699 23.833 -17 31.5s-26.666 11.5 -45.999 11.5h-35l25 85c-44.667 4.66699 -84.667 19 -120 43
s-63.166 55 -83.499 93s-30.5 80.333 -30.5 127c0 49.333 11.667 93.833 35 133.5s54.833 71.334 94.5 95.001s83.834 35.5 132.501 35.5c38.667 0 75.834 -7.33301 111.501 -22s66.5 -35.334 92.5 -62.001l-62 -69c-19.333 21.333 -41 37.333 -65 48s-49 16 -75 16
c-30.667 0 -58.5 -7.66699 -83.5 -23s-44.833 -36.333 -59.5 -63s-22 -56.334 -22 -89.001s7.33301 -62.334 22 -89.001s34.667 -47.834 60 -63.501s53.666 -23.5 84.999 -23.5c26 0 50.333 5.16699 73 15.5s44 25.5 64 45.5l61 -64c-24 -24 -51.167 -43.167 -81.5 -57.5
s-62.166 -23.166 -95.499 -26.499l-12 -43c29.333 -2 52.5 -10.667 69.5 -26s25.5 -35 25.5 -59c0 -27.333 -11.667 -50 -35 -68s-52.666 -27 -87.999 -27z" />
    <glyph glyph-name="egrave" unicode="&#xe8;" horiz-adv-x="573" 
d="M303 -9c-50 0 -95.1689 11.6641 -135.502 34.9971s-72.333 55 -96 95s-35.5 84.667 -35.5 134c0 48.667 11.333 92.834 34 132.501s53.334 71.334 92.001 95.001s81.667 35.5 129 35.5s89.333 -11.833 126 -35.5s65.834 -55.667 87.501 -96s32.5 -85.833 32.5 -136.5v-28
h-401c5.33301 -28 15.833 -53 31.5 -75s35.667 -39.333 60 -52s50.833 -19 79.5 -19c24.667 0 48.5 3.83301 71.5 11.5s42.167 18.834 57.5 33.501l64 -63c-30 -22.667 -60.833 -39.5 -92.5 -50.5s-66.5 -16.5 -104.5 -16.5zM136.998 296.997l300.998 -0.00195312
c-4 26.667 -13.167 50.167 -27.5 70.5s-32 36.333 -53 48s-43.833 17.5 -68.5 17.5c-25.333 0 -48.666 -5.66699 -69.999 -17s-39.166 -27.166 -53.499 -47.499s-23.833 -44.166 -28.5 -71.499zM266.996 602.995l-128 122h122l90 -122h-84z" />
    <glyph glyph-name="eacute" unicode="&#xe9;" horiz-adv-x="573" 
d="M303 -9c-50 0 -95.1689 11.6641 -135.502 34.9971s-72.333 55 -96 95s-35.5 84.667 -35.5 134c0 48.667 11.333 92.834 34 132.501s53.334 71.334 92.001 95.001s81.667 35.5 129 35.5s89.333 -11.833 126 -35.5s65.834 -55.667 87.501 -96s32.5 -85.833 32.5 -136.5v-28
h-401c5.33301 -28 15.833 -53 31.5 -75s35.667 -39.333 60 -52s50.833 -19 79.5 -19c24.667 0 48.5 3.83301 71.5 11.5s42.167 18.834 57.5 33.501l64 -63c-30 -22.667 -60.833 -39.5 -92.5 -50.5s-66.5 -16.5 -104.5 -16.5zM136.998 296.997l300.998 -0.00195312
c-4 26.667 -13.167 50.167 -27.5 70.5s-32 36.333 -53 48s-43.833 17.5 -68.5 17.5c-25.333 0 -48.666 -5.66699 -69.999 -17s-39.166 -27.166 -53.499 -47.499s-23.833 -44.166 -28.5 -71.499zM218.996 602.995l92 122h121l-129 -122h-84z" />
    <glyph glyph-name="ecircumflex" unicode="&#xea;" horiz-adv-x="573" 
d="M303 -9c-50 0 -95.1689 11.6641 -135.502 34.9971s-72.333 55 -96 95s-35.5 84.667 -35.5 134c0 48.667 11.333 92.834 34 132.501s53.334 71.334 92.001 95.001s81.667 35.5 129 35.5s89.333 -11.833 126 -35.5s65.834 -55.667 87.501 -96s32.5 -85.833 32.5 -136.5v-28
h-401c5.33301 -28 15.833 -53 31.5 -75s35.667 -39.333 60 -52s50.833 -19 79.5 -19c24.667 0 48.5 3.83301 71.5 11.5s42.167 18.834 57.5 33.501l64 -63c-30 -22.667 -60.833 -39.5 -92.5 -50.5s-66.5 -16.5 -104.5 -16.5zM136.998 296.997l300.998 -0.00195312
c-4 26.667 -13.167 50.167 -27.5 70.5s-32 36.333 -53 48s-43.833 17.5 -68.5 17.5c-25.333 0 -48.666 -5.66699 -69.999 -17s-39.166 -27.166 -53.499 -47.499s-23.833 -44.166 -28.5 -71.499zM368.996 599.995l-80 77l-79 -77h-81l109 127h104l109 -127h-82z" />
    <glyph glyph-name="edieresis" unicode="&#xeb;" horiz-adv-x="573" 
d="M303 -9c-50 0 -95.1689 11.6641 -135.502 34.9971s-72.333 55 -96 95s-35.5 84.667 -35.5 134c0 48.667 11.333 92.834 34 132.501s53.334 71.334 92.001 95.001s81.667 35.5 129 35.5s89.333 -11.833 126 -35.5s65.834 -55.667 87.501 -96s32.5 -85.833 32.5 -136.5v-28
h-401c5.33301 -28 15.833 -53 31.5 -75s35.667 -39.333 60 -52s50.833 -19 79.5 -19c24.667 0 48.5 3.83301 71.5 11.5s42.167 18.834 57.5 33.501l64 -63c-30 -22.667 -60.833 -39.5 -92.5 -50.5s-66.5 -16.5 -104.5 -16.5zM136.998 296.997l300.998 -0.00195312
c-4 26.667 -13.167 50.167 -27.5 70.5s-32 36.333 -53 48s-43.833 17.5 -68.5 17.5c-25.333 0 -48.666 -5.66699 -69.999 -17s-39.166 -27.166 -53.499 -47.499s-23.833 -44.166 -28.5 -71.499zM192.996 607.995c-16.667 0 -30.667 5.5 -42 16.5s-17 24.833 -17 41.5
s5.66699 30.5 17 41.5s25.333 16.5 42 16.5s30.667 -5.5 42 -16.5s17 -24.833 17 -41.5c0 -16 -5.66699 -29.667 -17 -41s-25.333 -17 -42 -17zM386.996 607.995c-16.667 0 -30.667 5.5 -42 16.5s-17 24.833 -17 41.5s5.66699 30.5 17 41.5s25.333 16.5 42 16.5
s30.667 -5.5 42 -16.5s17 -24.833 17 -41.5c0 -16 -5.66699 -29.667 -17 -41s-25.333 -17 -42 -17z" />
    <glyph glyph-name="igrave" unicode="&#xec;" horiz-adv-x="218" 
d="M59 0v509h100v-509h-100zM86 603l-128 122h122l90 -122h-84z" />
    <glyph glyph-name="iacute" unicode="&#xed;" horiz-adv-x="218" 
d="M59 0v509h100v-509h-100zM38 603l92 122h121l-129 -122h-84z" />
    <glyph glyph-name="icircumflex" unicode="&#xee;" horiz-adv-x="218" 
d="M59 0v509h100v-509h-100zM188 600l-80 77l-79 -77h-81l109 127h104l109 -127h-82z" />
    <glyph glyph-name="idieresis" unicode="&#xef;" horiz-adv-x="218" 
d="M59 0v509h100v-509h-100zM12 608c-16.667 0 -30.667 5.5 -42 16.5s-17 24.833 -17 41.5s5.66699 30.5 17 41.5s25.333 16.5 42 16.5s30.667 -5.5 42 -16.5s17 -24.833 17 -41.5c0 -16 -5.66699 -29.667 -17 -41s-25.333 -17 -42 -17zM206 608
c-16.667 0 -30.667 5.5 -42 16.5s-17 24.833 -17 41.5s5.66699 30.5 17 41.5s25.333 16.5 42 16.5s30.667 -5.5 42 -16.5s17 -24.833 17 -41.5c0 -16 -5.66699 -29.667 -17 -41s-25.333 -17 -42 -17z" />
    <glyph glyph-name="eth" unicode="&#xf0;" 
d="M289 -10c-47.333 0 -90.165 11.335 -128.498 34.002s-68.5 53.334 -90.5 92.001s-33 82 -33 130c0 33.333 6.16699 64.666 18.5 93.999s29.666 55 51.999 77s48.166 39.167 77.499 51.5s60.666 18.5 93.999 18.5c36.667 0 69.5 -7.33301 98.5 -22
s52.5 -35.334 70.5 -62.001c-6.66699 34.667 -18.167 67.167 -34.5 97.5s-37.166 57.5 -62.499 81.5l-96 -60l-39 56l79 49c-14 10.667 -29.167 19.667 -45.5 27s-33.5 13.666 -51.5 18.999l47 70c23.333 -8.66699 45.833 -18.5 67.5 -29.5s41.834 -23.5 60.501 -37.5
l105 67l40 -57l-91 -56c41.333 -41.333 72.833 -89.833 94.5 -145.5s32.5 -117.167 32.5 -184.5c0 -62.667 -10.833 -117.167 -32.5 -163.5s-52.334 -82.333 -92.001 -108s-86.5 -38.5 -140.5 -38.5zM292.001 79.002c29.333 0 56 7.33301 80 22s42.833 34.167 56.5 58.5
s20.5 51.833 20.5 82.5c0 30 -6.83301 57.167 -20.5 81.5s-32.5 43.666 -56.5 57.999s-50.667 21.5 -80 21.5c-30 0 -57 -7.16699 -81 -21.5s-43 -33.666 -57 -57.999s-21 -51.5 -21 -81.5c0 -30.667 7 -58.167 21 -82.5s33 -43.833 57 -58.5s51 -22 81 -22z" />
    <glyph glyph-name="ntilde" unicode="&#xf1;" horiz-adv-x="567" 
d="M59 0v508.999h100v-52c39.333 41.333 90.333 62 153 62c39.333 0 73.833 -8.33301 103.5 -25s53 -40 70 -70s25.5 -64.667 25.5 -104v-320h-100v303c0 40 -11.167 71.5 -33.5 94.5s-53.5 34.5 -93.5 34.5c-26.667 0 -50.667 -5.66699 -72 -17s-39 -27.666 -53 -48.999
v-366h-100zM172 595.999l-66.001 13c16 72.667 50.333 109 103 109c18 0 35.667 -4.33301 53 -13s33.666 -17.5 48.999 -26.5s30 -13.5 44 -13.5c11.333 0 20.333 4.16699 27 12.5s12.334 22.833 17.001 43.5l64 -13c-7.33301 -36.667 -19.666 -64 -36.999 -82
s-39 -27 -65 -27c-17.333 0 -34.833 4.5 -52.5 13.5l-50 26.5c-15.667 8.66699 -30.167 13 -43.5 13c-12 0 -21.167 -4.33301 -27.5 -13s-11.5 -23 -15.5 -43z" />
    <glyph glyph-name="ograve" unicode="&#xf2;" horiz-adv-x="602" 
d="M301 -10c-49.333 0 -94.166 11.667 -134.499 35s-72.166 55 -95.499 95s-35 84.667 -35 134s11.667 94 35 134s55.166 71.833 95.499 95.5s85.166 35.5 134.499 35.5c50 0 95 -11.833 135 -35.5s71.667 -55.5 95 -95.5s35 -84.667 35 -134s-11.667 -94 -35 -134
s-55 -71.667 -95 -95s-85 -35 -135 -35zM301 78c31.333 0 59.668 7.83301 85.001 23.5s45.333 36.834 60 63.501s22 56.667 22 90c0 32.667 -7.5 62.167 -22.5 88.5s-35 47.5 -60 63.5s-53.167 24 -84.5 24s-59.5 -8 -84.5 -24s-45 -37.167 -60 -63.5
s-22.5 -55.833 -22.5 -88.5c0 -33.333 7.33301 -63.333 22 -90s34.667 -47.834 60 -63.501s53.666 -23.5 84.999 -23.5zM278.002 603l-128 122h122l90 -122h-84z" />
    <glyph glyph-name="oacute" unicode="&#xf3;" horiz-adv-x="602" 
d="M301 -10c-49.333 0 -94.166 11.667 -134.499 35s-72.166 55 -95.499 95s-35 84.667 -35 134s11.667 94 35 134s55.166 71.833 95.499 95.5s85.166 35.5 134.499 35.5c50 0 95 -11.833 135 -35.5s71.667 -55.5 95 -95.5s35 -84.667 35 -134s-11.667 -94 -35 -134
s-55 -71.667 -95 -95s-85 -35 -135 -35zM301 78c31.333 0 59.668 7.83301 85.001 23.5s45.333 36.834 60 63.501s22 56.667 22 90c0 32.667 -7.5 62.167 -22.5 88.5s-35 47.5 -60 63.5s-53.167 24 -84.5 24s-59.5 -8 -84.5 -24s-45 -37.167 -60 -63.5
s-22.5 -55.833 -22.5 -88.5c0 -33.333 7.33301 -63.333 22 -90s34.667 -47.834 60 -63.501s53.666 -23.5 84.999 -23.5zM230.002 603l92 122h121l-129 -122h-84z" />
    <glyph glyph-name="ocircumflex" unicode="&#xf4;" horiz-adv-x="602" 
d="M301 -10c-49.333 0 -94.166 11.667 -134.499 35s-72.166 55 -95.499 95s-35 84.667 -35 134s11.667 94 35 134s55.166 71.833 95.499 95.5s85.166 35.5 134.499 35.5c50 0 95 -11.833 135 -35.5s71.667 -55.5 95 -95.5s35 -84.667 35 -134s-11.667 -94 -35 -134
s-55 -71.667 -95 -95s-85 -35 -135 -35zM301 78c31.333 0 59.668 7.83301 85.001 23.5s45.333 36.834 60 63.501s22 56.667 22 90c0 32.667 -7.5 62.167 -22.5 88.5s-35 47.5 -60 63.5s-53.167 24 -84.5 24s-59.5 -8 -84.5 -24s-45 -37.167 -60 -63.5
s-22.5 -55.833 -22.5 -88.5c0 -33.333 7.33301 -63.333 22 -90s34.667 -47.834 60 -63.501s53.666 -23.5 84.999 -23.5zM380.002 600l-80 77l-79 -77h-81l109 127h104l109 -127h-82z" />
    <glyph glyph-name="otilde" unicode="&#xf5;" horiz-adv-x="602" 
d="M301 -10c-49.333 0 -94.166 11.667 -134.499 35s-72.166 55 -95.499 95s-35 84.667 -35 134s11.667 94 35 134s55.166 71.833 95.499 95.5s85.166 35.5 134.499 35.5c50 0 95 -11.833 135 -35.5s71.667 -55.5 95 -95.5s35 -84.667 35 -134s-11.667 -94 -35 -134
s-55 -71.667 -95 -95s-85 -35 -135 -35zM301 78c31.333 0 59.668 7.83301 85.001 23.5s45.333 36.834 60 63.501s22 56.667 22 90c0 32.667 -7.5 62.167 -22.5 88.5s-35 47.5 -60 63.5s-53.167 24 -84.5 24s-59.5 -8 -84.5 -24s-45 -37.167 -60 -63.5
s-22.5 -55.833 -22.5 -88.5c0 -33.333 7.33301 -63.333 22 -90s34.667 -47.834 60 -63.501s53.666 -23.5 84.999 -23.5zM188.002 596l-66.001 13c16 72.667 50.333 109 103 109c18 0 35.667 -4.33301 53 -13s33.666 -17.5 48.999 -26.5s30 -13.5 44 -13.5
c11.333 0 20.333 4.16699 27 12.5s12.334 22.833 17.001 43.5l64 -13c-7.33301 -36.667 -19.666 -64 -36.999 -82s-39 -27 -65 -27c-17.333 0 -34.833 4.5 -52.5 13.5l-50 26.5c-15.667 8.66699 -30.167 13 -43.5 13c-12 0 -21.167 -4.33301 -27.5 -13s-11.5 -23 -15.5 -43z
" />
    <glyph glyph-name="odieresis" unicode="&#xf6;" horiz-adv-x="602" 
d="M301 -10c-49.333 0 -94.166 11.667 -134.499 35s-72.166 55 -95.499 95s-35 84.667 -35 134s11.667 94 35 134s55.166 71.833 95.499 95.5s85.166 35.5 134.499 35.5c50 0 95 -11.833 135 -35.5s71.667 -55.5 95 -95.5s35 -84.667 35 -134s-11.667 -94 -35 -134
s-55 -71.667 -95 -95s-85 -35 -135 -35zM301 78c31.333 0 59.668 7.83301 85.001 23.5s45.333 36.834 60 63.501s22 56.667 22 90c0 32.667 -7.5 62.167 -22.5 88.5s-35 47.5 -60 63.5s-53.167 24 -84.5 24s-59.5 -8 -84.5 -24s-45 -37.167 -60 -63.5
s-22.5 -55.833 -22.5 -88.5c0 -33.333 7.33301 -63.333 22 -90s34.667 -47.834 60 -63.501s53.666 -23.5 84.999 -23.5zM204.002 608c-16.667 0 -30.667 5.5 -42 16.5s-17 24.833 -17 41.5s5.66699 30.5 17 41.5s25.333 16.5 42 16.5s30.667 -5.5 42 -16.5
s17 -24.833 17 -41.5c0 -16 -5.66699 -29.667 -17 -41s-25.333 -17 -42 -17zM398.002 608c-16.667 0 -30.667 5.5 -42 16.5s-17 24.833 -17 41.5s5.66699 30.5 17 41.5s25.333 16.5 42 16.5s30.667 -5.5 42 -16.5s17 -24.833 17 -41.5c0 -16 -5.66699 -29.667 -17 -41
s-25.333 -17 -42 -17z" />
    <glyph glyph-name="divide" unicode="&#xf7;" 
d="M300 492c-18 0 -33.167 6.16699 -45.5 18.5s-18.5 27.5 -18.5 45.5s6.16699 33.333 18.5 46s27.5 19 45.5 19s33.167 -6.33301 45.5 -19s18.5 -28 18.5 -46c0 -17.333 -6.16699 -32.333 -18.5 -45s-27.5 -19 -45.5 -19zM300 96c-18 0 -33.167 6.33301 -45.5 19
s-18.5 27.667 -18.5 45c0 18 6.16699 33.333 18.5 46s27.5 19 45.5 19s33.167 -6.33301 45.5 -19s18.5 -27.667 18.5 -45c0 -18 -6.16699 -33.333 -18.5 -46s-27.5 -19 -45.5 -19zM94 319v78h412v-78h-412z" />
    <glyph glyph-name="oslash" unicode="&#xf8;" horiz-adv-x="602" 
d="M301 -10c-27.333 0 -53.3291 3.83008 -77.9961 11.4971s-47.334 18.167 -68.001 31.5l-28 -33h-77l59 70c-22.667 24 -40.5 51.833 -53.5 83.5s-19.5 65.5 -19.5 101.5c0 49.333 11.667 94 35 134s55.166 71.667 95.499 95s85.166 35 134.499 35
c27.333 0 53.166 -3.66699 77.499 -11s46.833 -17.666 67.5 -30.999l27 32h78l-59 -70c22.667 -23.333 40.5 -50.833 53.5 -82.5s19.5 -65.5 19.5 -101.5c0 -49.333 -11.667 -94.166 -35 -134.499s-55 -72.166 -95 -95.499s-84.667 -35 -134 -35zM170.004 144.997
l218.001 261c-12.667 8 -26.167 14.167 -40.5 18.5s-29.833 6.5 -46.5 6.5c-31.333 0 -59.5 -7.83301 -84.5 -23.5s-45 -36.667 -60 -63s-22.5 -56.166 -22.5 -89.499c0 -21.333 3.16699 -41.333 9.5 -60s15.166 -35.334 26.499 -50.001zM301.005 77.9971
c31.333 0 59.667 7.83203 85 23.499s45.166 37 59.499 64s21.5 56.833 21.5 89.5c0 21.333 -3.16699 41.333 -9.5 60s-15.166 35.334 -26.499 50.001l-217 -261c12 -8 25.5 -14.333 40.5 -19s30.5 -7 46.5 -7z" />
    <glyph glyph-name="ugrave" unicode="&#xf9;" horiz-adv-x="567" 
d="M256 -10c-39.333 0 -73.998 8.33398 -103.998 25.001s-53.333 40.167 -70 70.5s-25 65.166 -25 104.499v319h99v-302c0 -40 11.5 -71.667 34.5 -95s53.833 -35 92.5 -35c27.333 0 51.666 5.83301 72.999 17.5s38.666 28.167 51.999 49.5v365h100v-509h-100v52
c-39.333 -41.333 -90 -62 -152 -62zM261.002 603.001l-128 122h122l90 -122h-84z" />
    <glyph glyph-name="uacute" unicode="&#xfa;" horiz-adv-x="567" 
d="M256 -10c-39.333 0 -73.998 8.33398 -103.998 25.001s-53.333 40.167 -70 70.5s-25 65.166 -25 104.499v319h99v-302c0 -40 11.5 -71.667 34.5 -95s53.833 -35 92.5 -35c27.333 0 51.666 5.83301 72.999 17.5s38.666 28.167 51.999 49.5v365h100v-509h-100v52
c-39.333 -41.333 -90 -62 -152 -62zM212.002 603.001l92 122h121l-129 -122h-84z" />
    <glyph glyph-name="ucircumflex" unicode="&#xfb;" horiz-adv-x="567" 
d="M256 -10c-39.333 0 -73.998 8.33398 -103.998 25.001s-53.333 40.167 -70 70.5s-25 65.166 -25 104.499v319h99v-302c0 -40 11.5 -71.667 34.5 -95s53.833 -35 92.5 -35c27.333 0 51.666 5.83301 72.999 17.5s38.666 28.167 51.999 49.5v365h100v-509h-100v52
c-39.333 -41.333 -90 -62 -152 -62zM362.002 600.001l-80 77l-79 -77h-81l109 127h104l109 -127h-82z" />
    <glyph glyph-name="udieresis" unicode="&#xfc;" horiz-adv-x="567" 
d="M256 -10c-39.333 0 -73.998 8.33398 -103.998 25.001s-53.333 40.167 -70 70.5s-25 65.166 -25 104.499v319h99v-302c0 -40 11.5 -71.667 34.5 -95s53.833 -35 92.5 -35c27.333 0 51.666 5.83301 72.999 17.5s38.666 28.167 51.999 49.5v365h100v-509h-100v52
c-39.333 -41.333 -90 -62 -152 -62zM186.002 608.001c-16.667 0 -30.667 5.5 -42 16.5s-17 24.833 -17 41.5s5.66699 30.5 17 41.5s25.333 16.5 42 16.5s30.667 -5.5 42 -16.5s17 -24.833 17 -41.5c0 -16 -5.66699 -29.667 -17 -41s-25.333 -17 -42 -17zM380.002 608.001
c-16.667 0 -30.667 5.5 -42 16.5s-17 24.833 -17 41.5s5.66699 30.5 17 41.5s25.333 16.5 42 16.5s30.667 -5.5 42 -16.5s17 -24.833 17 -41.5c0 -16 -5.66699 -29.667 -17 -41s-25.333 -17 -42 -17z" />
    <glyph glyph-name="yacute" unicode="&#xfd;" horiz-adv-x="537" 
d="M93 -215c-10.667 0 -20.6689 0.499023 -30.002 1.49902s-17 2.5 -23 4.5v88c12 -2.66699 26.667 -4 44 -4c46.667 0 80.334 25 101.001 75l22 49l-204 510h111l148 -388l164 388h108l-246 -572c-16 -36 -33 -65.167 -51 -87.5s-38.667 -38.666 -62 -48.999
s-50.666 -15.5 -81.999 -15.5zM193.998 602.999l92 122h121l-129 -122h-84z" />
    <glyph glyph-name="thorn" unicode="&#xfe;" horiz-adv-x="609" 
d="M59 -206l-0.000976562 905.998l100 22v-261c42.667 37.333 94.334 56 155.001 56c48 0 91.5 -11.667 130.5 -35s69.833 -54.666 92.5 -93.999s34 -83.666 34 -132.999s-11.5 -93.833 -34.5 -133.5s-54 -71.167 -93 -94.5s-82.833 -35 -131.5 -35c-28 0 -55 4.5 -81 13.5
s-50 21.833 -72 38.5v-250h-100zM300.999 429.998c-28.667 0 -55.332 -5.33008 -79.999 -15.9971s-45.334 -25.667 -62.001 -45v-230c16.667 -18.667 37.5 -33.334 62.5 -44.001s51.5 -16 79.5 -16c32.667 0 61.834 7.66699 87.501 23s46.167 36.166 61.5 62.499
s23 56.166 23 89.499s-7.66699 63.333 -23 90s-35.833 47.667 -61.5 63s-54.834 23 -87.501 23z" />
    <glyph glyph-name="ydieresis" unicode="&#xff;" horiz-adv-x="537" 
d="M93 -215c-10.667 0 -20.6689 0.499023 -30.002 1.49902s-17 2.5 -23 4.5v88c12 -2.66699 26.667 -4 44 -4c46.667 0 80.334 25 101.001 75l22 49l-204 510h111l148 -388l164 388h108l-246 -572c-16 -36 -33 -65.167 -51 -87.5s-38.667 -38.666 -62 -48.999
s-50.666 -15.5 -81.999 -15.5zM167.998 607.999c-16.667 0 -30.667 5.5 -42 16.5s-17 24.833 -17 41.5s5.66699 30.5 17 41.5s25.333 16.5 42 16.5s30.667 -5.5 42 -16.5s17 -24.833 17 -41.5c0 -16 -5.66699 -29.667 -17 -41s-25.333 -17 -42 -17zM361.998 607.999
c-16.667 0 -30.667 5.5 -42 16.5s-17 24.833 -17 41.5s5.66699 30.5 17 41.5s25.333 16.5 42 16.5s30.667 -5.5 42 -16.5s17 -24.833 17 -41.5c0 -16 -5.66699 -29.667 -17 -41s-25.333 -17 -42 -17z" />
    <glyph glyph-name="Amacron" unicode="&#x100;" horiz-adv-x="701" 
d="M1 0l289 700h124l286 -700h-114l-81 205h-313l-82 -205h-109zM226 292h245l-122 308zM202 813v67h298v-67h-298z" />
    <glyph glyph-name="amacron" unicode="&#x101;" horiz-adv-x="532" 
d="M220 -9c-36.667 0 -69.002 6.5 -97.002 19.5s-50 31.167 -66 54.5s-24 50.333 -24 81c0 48 18.333 85.833 55 113.5s87 41.5 151 41.5c50 0 96.333 -9.66699 139 -29v54c0 36.667 -10.5 64 -31.5 82s-51.833 27 -92.5 27c-23.333 0 -47.666 -3.5 -72.999 -10.5
s-53.666 -17.833 -84.999 -32.5l-37 75c38.667 18 74.667 31.167 108 39.5s67 12.5 101 12.5c66 0 117.167 -15.667 153.5 -47s54.5 -76 54.5 -134v-338h-98v44c-22.667 -18 -47 -31.333 -73 -40s-54.333 -13 -85 -13zM128.998 148c0 -24.667 10.5 -44.501 31.5 -59.501
s48.5 -22.5 82.5 -22.5c26.667 0 51.167 3.83301 73.5 11.5s42.833 19.834 61.5 36.501v86c-19.333 11.333 -39.5 19.5 -60.5 24.5s-44.5 7.5 -70.5 7.5c-36.667 0 -65.5 -7.5 -86.5 -22.5s-31.5 -35.5 -31.5 -61.5zM108.998 621.999v67h298v-67h-298z" />
    <glyph glyph-name="Abreve" unicode="&#x102;" horiz-adv-x="701" 
d="M1 0l289 700h124l286 -700h-114l-81 205h-313l-82 -205h-109zM226 292h245l-122 308zM351 786c-42 0 -77.333 11.333 -106 34s-47.667 54 -57 94l65 17c15.333 -56 48 -84 98 -84c24 0 44.333 7 61 21s29 35 37 63l65 -17c-9.33301 -40 -28.333 -71.333 -57 -94
s-64 -34 -106 -34z" />
    <glyph glyph-name="abreve" unicode="&#x103;" horiz-adv-x="532" 
d="M220 -9c-36.667 0 -69.002 6.5 -97.002 19.5s-50 31.167 -66 54.5s-24 50.333 -24 81c0 48 18.333 85.833 55 113.5s87 41.5 151 41.5c50 0 96.333 -9.66699 139 -29v54c0 36.667 -10.5 64 -31.5 82s-51.833 27 -92.5 27c-23.333 0 -47.666 -3.5 -72.999 -10.5
s-53.666 -17.833 -84.999 -32.5l-37 75c38.667 18 74.667 31.167 108 39.5s67 12.5 101 12.5c66 0 117.167 -15.667 153.5 -47s54.5 -76 54.5 -134v-338h-98v44c-22.667 -18 -47 -31.333 -73 -40s-54.333 -13 -85 -13zM128.998 148c0 -24.667 10.5 -44.501 31.5 -59.501
s48.5 -22.5 82.5 -22.5c26.667 0 51.167 3.83301 73.5 11.5s42.833 19.834 61.5 36.501v86c-19.333 11.333 -39.5 19.5 -60.5 24.5s-44.5 7.5 -70.5 7.5c-36.667 0 -65.5 -7.5 -86.5 -22.5s-31.5 -35.5 -31.5 -61.5zM257.998 594.999c-42 0 -77.333 11.333 -106 34
s-47.667 54 -57 94l65 17c15.333 -56 48 -84 98 -84c24 0 44.333 7 61 21s29 35 37 63l65 -17c-9.33301 -40 -28.333 -71.333 -57 -94s-64 -34 -106 -34z" />
    <glyph glyph-name="Aogonek" unicode="&#x104;" horiz-adv-x="701" 
d="M639 -221c-30 0 -54.332 7.99902 -72.999 23.999s-28 37.333 -28 64c0 24 7.66699 46.5 23 67.5s39.666 42.833 72.999 65.5h-48l-81 205h-313l-82 -205h-109l290 700h123l287 -700c-34.667 -20.667 -60 -40.5 -76 -59.5s-24 -37.833 -24 -56.5
c0 -15.333 4.83301 -27.166 14.5 -35.499s23.167 -12.5 40.5 -12.5c8 0 15.833 1 23.5 3s14.5 5.33301 20.5 10l17 -48c-10.667 -6.66699 -22.667 -12 -36 -16s-27.333 -6 -42 -6zM226.001 291.999h245l-121 307z" />
    <glyph glyph-name="aogonek" unicode="&#x105;" horiz-adv-x="532" 
d="M415 -221c-30 0 -54.334 7.99902 -73.001 23.999s-28 37.333 -28 64c0 24 7.66699 46.5 23 67.5s39.333 42.833 72 65.5h-31v44c-22.667 -18 -47 -31.333 -73 -40s-54.333 -13 -85 -13c-36.667 0 -69 6.5 -97 19.5s-50 31.167 -66 54.5s-24 50.333 -24 81
c0 48 18.333 85.833 55 113.5s87 41.5 151 41.5c50 0 96.333 -9.66699 139 -29v54c0 36.667 -10.5 64 -31.5 82s-51.833 27 -92.5 27c-23.333 0 -47.666 -3.5 -72.999 -10.5s-53.666 -17.833 -84.999 -32.5l-37 75c38.667 18 74.667 31.167 108 39.5s67 12.5 101 12.5
c66 0 117.167 -15.667 153.5 -47s54.5 -76 54.5 -134v-338c-34.667 -20.667 -59.834 -40.5 -75.501 -59.5s-23.5 -37.833 -23.5 -56.5c0 -15.333 4.66699 -27.166 14 -35.499s23 -12.5 41 -12.5c7.33301 0 15 1 23 3s15 5.33301 21 10l17 -48
c-10.667 -6.66699 -22.667 -12 -36 -16s-27.333 -6 -42 -6zM242.999 65.999c26.667 0 51.167 3.83203 73.5 11.499s42.833 19.834 61.5 36.501v86c-19.333 11.333 -39.5 19.5 -60.5 24.5s-44.5 7.5 -70.5 7.5c-36.667 0 -65.5 -7.5 -86.5 -22.5s-31.5 -35.5 -31.5 -61.5
c0 -24.667 10.5 -44.5 31.5 -59.5s48.5 -22.5 82.5 -22.5z" />
    <glyph glyph-name="Cacute" unicode="&#x106;" horiz-adv-x="720" 
d="M408 -11c-52 0 -100.168 9.16602 -144.501 27.499s-83.333 44 -117 77s-59.667 71.333 -78 115s-27.5 90.834 -27.5 141.501s9.16699 97.834 27.5 141.501s44.333 82 78 115s72.834 58.667 117.501 77s92.667 27.5 144 27.5c36.667 0 72.5 -4.83301 107.5 -14.5
s67.333 -23.5 97 -41.5s55.5 -39.667 77.5 -65l-70 -72c-26 31.333 -57.667 55.166 -95 71.499s-76.333 24.5 -117 24.5c-37.333 0 -71.833 -6.66699 -103.5 -20s-59.167 -31.833 -82.5 -55.5s-41.5 -51.5 -54.5 -83.5s-19.5 -67 -19.5 -105c0 -37.333 6.5 -72 19.5 -104
s31.5 -60 55.5 -84s52 -42.667 84 -56s66.667 -20 104 -20c40.667 0 79.167 8.16699 115.5 24.5s67.166 39.5 92.499 69.5l69 -70c-23.333 -24.667 -49.833 -46.167 -79.5 -64.5s-61.667 -32.333 -96 -42s-69.166 -14.5 -104.499 -14.5zM332.999 793.999l92 122h121
l-129 -122h-84z" />
    <glyph glyph-name="cacute" unicode="&#x107;" horiz-adv-x="521" 
d="M298 -9c-48.667 0 -93.001 11.6699 -133.001 35.0029s-71.5 55 -94.5 95s-34.5 84.667 -34.5 134s11.667 93.833 35 133.5s54.833 71.334 94.5 95.001s83.834 35.5 132.501 35.5c38.667 0 75.834 -7.33301 111.501 -22s66.5 -35.334 92.5 -62.001l-62 -69
c-19.333 21.333 -41 37.333 -65 48s-49 16 -75 16c-30.667 0 -58.5 -7.66699 -83.5 -23s-44.833 -36.333 -59.5 -63s-22 -56.334 -22 -89.001s7.33301 -62.334 22 -89.001s34.667 -47.834 60 -63.501s53.666 -23.5 84.999 -23.5c26 0 50.333 5.16699 73 15.5
s44 25.5 64 45.5l61 -64c-26.667 -27.333 -57.5 -48.333 -92.5 -63s-71.5 -22 -109.5 -22zM225.999 603.003l92 122h121l-129 -122h-84z" />
    <glyph glyph-name="Ccircumflex" unicode="&#x108;" horiz-adv-x="720" 
d="M408 -11c-52 0 -100.168 9.16602 -144.501 27.499s-83.333 44 -117 77s-59.667 71.333 -78 115s-27.5 90.834 -27.5 141.501s9.16699 97.834 27.5 141.501s44.333 82 78 115s72.834 58.667 117.501 77s92.667 27.5 144 27.5c36.667 0 72.5 -4.83301 107.5 -14.5
s67.333 -23.5 97 -41.5s55.5 -39.667 77.5 -65l-70 -72c-26 31.333 -57.667 55.166 -95 71.499s-76.333 24.5 -117 24.5c-37.333 0 -71.833 -6.66699 -103.5 -20s-59.167 -31.833 -82.5 -55.5s-41.5 -51.5 -54.5 -83.5s-19.5 -67 -19.5 -105c0 -37.333 6.5 -72 19.5 -104
s31.5 -60 55.5 -84s52 -42.667 84 -56s66.667 -20 104 -20c40.667 0 79.167 8.16699 115.5 24.5s67.166 39.5 92.499 69.5l69 -70c-23.333 -24.667 -49.833 -46.167 -79.5 -64.5s-61.667 -32.333 -96 -42s-69.166 -14.5 -104.499 -14.5zM482.999 790.999l-80 77l-79 -77h-81
l109 127h104l109 -127h-82z" />
    <glyph glyph-name="ccircumflex" unicode="&#x109;" horiz-adv-x="521" 
d="M298 -9c-48.667 0 -93.001 11.6699 -133.001 35.0029s-71.5 55 -94.5 95s-34.5 84.667 -34.5 134s11.667 93.833 35 133.5s54.833 71.334 94.5 95.001s83.834 35.5 132.501 35.5c38.667 0 75.834 -7.33301 111.501 -22s66.5 -35.334 92.5 -62.001l-62 -69
c-19.333 21.333 -41 37.333 -65 48s-49 16 -75 16c-30.667 0 -58.5 -7.66699 -83.5 -23s-44.833 -36.333 -59.5 -63s-22 -56.334 -22 -89.001s7.33301 -62.334 22 -89.001s34.667 -47.834 60 -63.501s53.666 -23.5 84.999 -23.5c26 0 50.333 5.16699 73 15.5
s44 25.5 64 45.5l61 -64c-26.667 -27.333 -57.5 -48.333 -92.5 -63s-71.5 -22 -109.5 -22zM375.999 600.003l-80 77l-79 -77h-81l109 127h104l109 -127h-82z" />
    <glyph glyph-name="Cdotaccent" unicode="&#x10a;" horiz-adv-x="720" 
d="M408 -11c-52 0 -100.168 9.16602 -144.501 27.499s-83.333 44 -117 77s-59.667 71.333 -78 115s-27.5 90.834 -27.5 141.501s9.16699 97.834 27.5 141.501s44.333 82 78 115s72.834 58.667 117.501 77s92.667 27.5 144 27.5c36.667 0 72.5 -4.83301 107.5 -14.5
s67.333 -23.5 97 -41.5s55.5 -39.667 77.5 -65l-70 -72c-26 31.333 -57.667 55.166 -95 71.499s-76.333 24.5 -117 24.5c-37.333 0 -71.833 -6.66699 -103.5 -20s-59.167 -31.833 -82.5 -55.5s-41.5 -51.5 -54.5 -83.5s-19.5 -67 -19.5 -105c0 -37.333 6.5 -72 19.5 -104
s31.5 -60 55.5 -84s52 -42.667 84 -56s66.667 -20 104 -20c40.667 0 79.167 8.16699 115.5 24.5s67.166 39.5 92.499 69.5l69 -70c-23.333 -24.667 -49.833 -46.167 -79.5 -64.5s-61.667 -32.333 -96 -42s-69.166 -14.5 -104.499 -14.5zM403.999 792.999
c-16.667 0 -30.834 5.66699 -42.501 17s-17.5 25.333 -17.5 42c0 16 5.83301 29.667 17.5 41s25.834 17 42.501 17s30.834 -5.66699 42.501 -17s17.5 -25 17.5 -41c0 -16.667 -5.83301 -30.667 -17.5 -42s-25.834 -17 -42.501 -17z" />
    <glyph glyph-name="cdotaccent" unicode="&#x10b;" horiz-adv-x="521" 
d="M298 -9c-48.667 0 -93.001 11.6699 -133.001 35.0029s-71.5 55 -94.5 95s-34.5 84.667 -34.5 134s11.667 93.833 35 133.5s54.833 71.334 94.5 95.001s83.834 35.5 132.501 35.5c38.667 0 75.834 -7.33301 111.501 -22s66.5 -35.334 92.5 -62.001l-62 -69
c-19.333 21.333 -41 37.333 -65 48s-49 16 -75 16c-30.667 0 -58.5 -7.66699 -83.5 -23s-44.833 -36.333 -59.5 -63s-22 -56.334 -22 -89.001s7.33301 -62.334 22 -89.001s34.667 -47.834 60 -63.501s53.666 -23.5 84.999 -23.5c26 0 50.333 5.16699 73 15.5
s44 25.5 64 45.5l61 -64c-26.667 -27.333 -57.5 -48.333 -92.5 -63s-71.5 -22 -109.5 -22zM296.999 602.003c-16.667 0 -30.834 5.66699 -42.501 17s-17.5 25.333 -17.5 42c0 16 5.83301 29.667 17.5 41s25.834 17 42.501 17s30.834 -5.66699 42.501 -17s17.5 -25 17.5 -41
c0 -16.667 -5.83301 -30.667 -17.5 -42s-25.834 -17 -42.501 -17z" />
    <glyph glyph-name="Ccaron" unicode="&#x10c;" horiz-adv-x="720" 
d="M408 -11c-52 0 -100.168 9.16602 -144.501 27.499s-83.333 44 -117 77s-59.667 71.333 -78 115s-27.5 90.834 -27.5 141.501s9.16699 97.834 27.5 141.501s44.333 82 78 115s72.834 58.667 117.501 77s92.667 27.5 144 27.5c36.667 0 72.5 -4.83301 107.5 -14.5
s67.333 -23.5 97 -41.5s55.5 -39.667 77.5 -65l-70 -72c-26 31.333 -57.667 55.166 -95 71.499s-76.333 24.5 -117 24.5c-37.333 0 -71.833 -6.66699 -103.5 -20s-59.167 -31.833 -82.5 -55.5s-41.5 -51.5 -54.5 -83.5s-19.5 -67 -19.5 -105c0 -37.333 6.5 -72 19.5 -104
s31.5 -60 55.5 -84s52 -42.667 84 -56s66.667 -20 104 -20c40.667 0 79.167 8.16699 115.5 24.5s67.166 39.5 92.499 69.5l69 -70c-23.333 -24.667 -49.833 -46.167 -79.5 -64.5s-61.667 -32.333 -96 -42s-69.166 -14.5 -104.499 -14.5zM325.999 917.999l79 -76l78 76h82
l-109 -126h-104l-109 126h83z" />
    <glyph glyph-name="ccaron" unicode="&#x10d;" horiz-adv-x="521" 
d="M298 -9c-48.667 0 -93.001 11.6699 -133.001 35.0029s-71.5 55 -94.5 95s-34.5 84.667 -34.5 134s11.667 93.833 35 133.5s54.833 71.334 94.5 95.001s83.834 35.5 132.501 35.5c38.667 0 75.834 -7.33301 111.501 -22s66.5 -35.334 92.5 -62.001l-62 -69
c-19.333 21.333 -41 37.333 -65 48s-49 16 -75 16c-30.667 0 -58.5 -7.66699 -83.5 -23s-44.833 -36.333 -59.5 -63s-22 -56.334 -22 -89.001s7.33301 -62.334 22 -89.001s34.667 -47.834 60 -63.501s53.666 -23.5 84.999 -23.5c26 0 50.333 5.16699 73 15.5
s44 25.5 64 45.5l61 -64c-26.667 -27.333 -57.5 -48.333 -92.5 -63s-71.5 -22 -109.5 -22zM218.999 727.003l79 -76l78 76h82l-109 -126h-104l-109 126h83z" />
    <glyph glyph-name="Dcaron" unicode="&#x10e;" horiz-adv-x="727" 
d="M176 94h144c36.667 0 70.667 6.5 102 19.5s58.833 31 82.5 54s42 50 55 81s19.5 64.833 19.5 101.5c0 36 -6.5 69.667 -19.5 101s-31.333 58.5 -55 81.5s-51.167 41 -82.5 54s-65.333 19.5 -102 19.5h-144v-512zM71 0l-0.00195312 699.999h247
c52.667 0 101.334 -8.83301 146.001 -26.5s83.667 -42.167 117 -73.5s59.333 -68.333 78 -111s28 -89 28 -139c0 -50.667 -9.16699 -97.167 -27.5 -139.5s-44.166 -79.166 -77.499 -110.499s-72.5 -55.833 -117.5 -73.5s-93.833 -26.5 -146.5 -26.5h-247zM285.998 917.999
l79 -76l78 76h82l-109 -126h-104l-109 126h83z" />
    <glyph glyph-name="dcaron" unicode="&#x10f;" horiz-adv-x="695" 
d="M293 -8c-47.333 0 -90.667 11.6699 -130 35.0029s-70.333 54.833 -93 94.5s-34 84.167 -34 133.5s11.5 93.666 34.5 132.999s54.167 70.666 93.5 93.999s83 35 131 35c28 0 55 -4.33301 81 -13s50 -21.334 72 -38.001v234l100 19v-719h-99v49
c-43.333 -38 -95.333 -57 -156 -57zM305.999 79.0029c29.333 0 56.166 5.33203 80.499 15.999s44.833 26 61.5 46v229c-16.667 18.667 -37.167 33.5 -61.5 44.5s-51.166 16.5 -80.499 16.5c-32 0 -61 -7.66699 -87 -23s-46.667 -36.166 -62 -62.499s-23 -56.166 -23 -89.499
s7.66699 -63.333 23 -90s36 -47.834 62 -63.501s55 -23.5 87 -23.5zM617.999 505.002l5 195l90 15l-29 -210h-66z" />
    <glyph glyph-name="Dcroat" unicode="&#x110;" horiz-adv-x="755" 
d="M98 0v306.999h-84v86h84v307h247c52.667 0 101.334 -8.83301 146.001 -26.5s83.667 -42.167 117 -73.5s59.166 -68.333 77.499 -111s27.5 -89 27.5 -139c0 -50.667 -9.16699 -97.167 -27.5 -139.5s-44 -79.166 -77 -110.499s-72 -55.833 -117 -73.5
s-93.833 -26.5 -146.5 -26.5h-247zM203 93.999h142.998c36.667 0 70.834 6.5 102.501 19.5s59.334 31 83.001 54s42 50 55 81s19.5 64.5 19.5 100.5c0 36.667 -6.66699 70.667 -20 102s-31.666 58.5 -54.999 81.5s-50.833 41 -82.5 54s-65.834 19.5 -102.501 19.5h-143v-213
h179v-86h-179v-213z" />
    <glyph glyph-name="dcroat" unicode="&#x111;" horiz-adv-x="606" 
d="M293 -8c-47.333 0 -90.668 11.6699 -130.001 35.0029s-70.333 54.833 -93 94.5s-34 84.167 -34 133.5s11.333 93.666 34 132.999s53.834 70.666 93.501 93.999s83.5 35 131.5 35c28 0 55 -4.33301 81 -13s50 -21.334 72 -38.001v117h-154v69h154v48l100 22v-70h59v-69
h-59v-583h-99v49c-43.333 -38 -95.333 -57 -156 -57zM305.998 79.0029c29.333 0 56.166 5.33203 80.499 15.999s44.833 26 61.5 46v229c-16.667 18.667 -37.167 33.5 -61.5 44.5s-51.166 16.5 -80.499 16.5c-32 0 -61 -7.66699 -87 -23s-46.667 -36.166 -62 -62.499
s-23 -56.166 -23 -89.499s7.66699 -63.333 23 -90s36 -47.834 62 -63.501s55 -23.5 87 -23.5z" />
    <glyph glyph-name="Emacron" unicode="&#x112;" horiz-adv-x="628" 
d="M71 0v700h516v-92h-411v-210h270v-89h-270v-217h415v-92h-520zM193 813v67h298v-67h-298z" />
    <glyph glyph-name="emacron" unicode="&#x113;" horiz-adv-x="573" 
d="M303 -9c-50 0 -95.1689 11.6641 -135.502 34.9971s-72.333 55 -96 95s-35.5 84.667 -35.5 134c0 48.667 11.333 92.834 34 132.501s53.334 71.334 92.001 95.001s81.667 35.5 129 35.5s89.333 -11.833 126 -35.5s65.834 -55.667 87.501 -96s32.5 -85.833 32.5 -136.5v-28
h-401c5.33301 -28 15.833 -53 31.5 -75s35.667 -39.333 60 -52s50.833 -19 79.5 -19c24.667 0 48.5 3.83301 71.5 11.5s42.167 18.834 57.5 33.501l64 -63c-30 -22.667 -60.833 -39.5 -92.5 -50.5s-66.5 -16.5 -104.5 -16.5zM136.998 296.997l300.998 -0.00195312
c-4 26.667 -13.167 50.167 -27.5 70.5s-32 36.333 -53 48s-43.833 17.5 -68.5 17.5c-25.333 0 -48.666 -5.66699 -69.999 -17s-39.166 -27.166 -53.499 -47.499s-23.833 -44.166 -28.5 -71.499zM140.996 621.995v67h298v-67h-298z" />
    <glyph glyph-name="Ebreve" unicode="&#x114;" horiz-adv-x="628" 
d="M71 0v700h516v-92h-411v-210h270v-89h-270v-217h415v-92h-520zM342 786c-42 0 -77.333 11.333 -106 34s-47.667 54 -57 94l65 17c15.333 -56 48 -84 98 -84c24 0 44.333 7 61 21s29 35 37 63l65 -17c-9.33301 -40 -28.333 -71.333 -57 -94s-64 -34 -106 -34z" />
    <glyph glyph-name="ebreve" unicode="&#x115;" horiz-adv-x="573" 
d="M303 -9c-50 0 -95.1689 11.6641 -135.502 34.9971s-72.333 55 -96 95s-35.5 84.667 -35.5 134c0 48.667 11.333 92.834 34 132.501s53.334 71.334 92.001 95.001s81.667 35.5 129 35.5s89.333 -11.833 126 -35.5s65.834 -55.667 87.501 -96s32.5 -85.833 32.5 -136.5v-28
h-401c5.33301 -28 15.833 -53 31.5 -75s35.667 -39.333 60 -52s50.833 -19 79.5 -19c24.667 0 48.5 3.83301 71.5 11.5s42.167 18.834 57.5 33.501l64 -63c-30 -22.667 -60.833 -39.5 -92.5 -50.5s-66.5 -16.5 -104.5 -16.5zM136.998 296.997l300.998 -0.00195312
c-4 26.667 -13.167 50.167 -27.5 70.5s-32 36.333 -53 48s-43.833 17.5 -68.5 17.5c-25.333 0 -48.666 -5.66699 -69.999 -17s-39.166 -27.166 -53.499 -47.499s-23.833 -44.166 -28.5 -71.499zM289.996 594.995c-42 0 -77.333 11.333 -106 34s-47.667 54 -57 94l65 17
c15.333 -56 48 -84 98 -84c24 0 44.333 7 61 21s29 35 37 63l65 -17c-9.33301 -40 -28.333 -71.333 -57 -94s-64 -34 -106 -34z" />
    <glyph glyph-name="Edotaccent" unicode="&#x116;" horiz-adv-x="628" 
d="M71 0v700h516v-92h-411v-210h270v-89h-270v-217h415v-92h-520zM342 793c-16.667 0 -30.834 5.66699 -42.501 17s-17.5 25.333 -17.5 42c0 16 5.83301 29.667 17.5 41s25.834 17 42.501 17s30.834 -5.66699 42.501 -17s17.5 -25 17.5 -41
c0 -16.667 -5.83301 -30.667 -17.5 -42s-25.834 -17 -42.501 -17z" />
    <glyph glyph-name="edotaccent" unicode="&#x117;" horiz-adv-x="573" 
d="M303 -9c-50 0 -95.1689 11.6641 -135.502 34.9971s-72.333 55 -96 95s-35.5 84.667 -35.5 134c0 48.667 11.333 92.834 34 132.501s53.334 71.334 92.001 95.001s81.667 35.5 129 35.5s89.333 -11.833 126 -35.5s65.834 -55.667 87.501 -96s32.5 -85.833 32.5 -136.5v-28
h-401c5.33301 -28 15.833 -53 31.5 -75s35.667 -39.333 60 -52s50.833 -19 79.5 -19c24.667 0 48.5 3.83301 71.5 11.5s42.167 18.834 57.5 33.501l64 -63c-30 -22.667 -60.833 -39.5 -92.5 -50.5s-66.5 -16.5 -104.5 -16.5zM136.998 296.997l300.998 -0.00195312
c-4 26.667 -13.167 50.167 -27.5 70.5s-32 36.333 -53 48s-43.833 17.5 -68.5 17.5c-25.333 0 -48.666 -5.66699 -69.999 -17s-39.166 -27.166 -53.499 -47.499s-23.833 -44.166 -28.5 -71.499zM289.996 601.995c-16.667 0 -30.834 5.66699 -42.501 17
s-17.5 25.333 -17.5 42c0 16 5.83301 29.667 17.5 41s25.834 17 42.501 17s30.834 -5.66699 42.501 -17s17.5 -25 17.5 -41c0 -16.667 -5.83301 -30.667 -17.5 -42s-25.834 -17 -42.501 -17z" />
    <glyph glyph-name="Eogonek" unicode="&#x118;" horiz-adv-x="628" 
d="M608 -199c-10.667 -6.66699 -22.666 -12.001 -35.999 -16.001s-27.333 -6 -42 -6c-30 0 -54.333 8 -73 24s-28 37.333 -28 64c0 24 7.66699 46.5 23 67.5s39.666 42.833 72.999 65.5h-454v700h516v-92h-411v-210h270v-89h-270v-217h415v-92
c-34 -20.667 -59 -40.5 -75 -59.5s-24 -37.833 -24 -56.5c0 -15.333 4.66699 -27.166 14 -35.499s23 -12.5 41 -12.5c7.33301 0 15 1 23 3s15 5.33301 21 10z" />
    <glyph glyph-name="eogonek" unicode="&#x119;" horiz-adv-x="573" 
d="M321 -221c-30.667 0 -55.168 7.99707 -73.501 23.9971s-27.5 37.333 -27.5 64c0 22.667 6.5 43.834 19.5 63.501s33.833 39.834 62.5 60.501c-50 0.666992 -95.167 12.667 -135.5 36s-72.166 54.833 -95.499 94.5s-35 84.167 -35 133.5
c0 48.667 11.333 92.834 34 132.501s53.334 71.334 92.001 95.001s81.667 35.5 129 35.5s89.333 -11.833 126 -35.5s65.834 -55.667 87.501 -96s32.5 -85.833 32.5 -136.5v-28h-401c5.33301 -28 15.833 -53 31.5 -75s35.667 -39.333 60 -52s50.833 -19 79.5 -19
c24.667 0 48.5 3.83301 71.5 11.5s42.167 18.834 57.5 33.501l64 -63c-18.667 -14.667 -37.834 -26.834 -57.501 -36.501s-40.167 -17.167 -61.5 -22.5c-34 -20.667 -58.833 -40.334 -74.5 -59.001s-23.5 -37.334 -23.5 -56.001c0 -15.333 4.66699 -27.166 14 -35.499
s22.666 -12.5 39.999 -12.5c8 0 16 1 24 3s15 5.33301 21 10l17 -48c-11.333 -6.66699 -23.5 -12 -36.5 -16s-26.833 -6 -41.5 -6zM136.999 296.997l300.998 -0.00195312c-4 26.667 -13.167 50.167 -27.5 70.5s-32 36.333 -53 48s-43.833 17.5 -68.5 17.5
c-25.333 0 -48.666 -5.66699 -69.999 -17s-39.166 -27.166 -53.499 -47.499s-23.833 -44.166 -28.5 -71.499z" />
    <glyph glyph-name="Ecaron" unicode="&#x11a;" horiz-adv-x="628" 
d="M71 0v700h516v-92h-411v-210h270v-89h-270v-217h415v-92h-520zM264 918l79 -76l78 76h82l-109 -126h-104l-109 126h83z" />
    <glyph glyph-name="ecaron" unicode="&#x11b;" horiz-adv-x="573" 
d="M303 -9c-50 0 -95.1689 11.6641 -135.502 34.9971s-72.333 55 -96 95s-35.5 84.667 -35.5 134c0 48.667 11.333 92.834 34 132.501s53.334 71.334 92.001 95.001s81.667 35.5 129 35.5s89.333 -11.833 126 -35.5s65.834 -55.667 87.501 -96s32.5 -85.833 32.5 -136.5v-28
h-401c5.33301 -28 15.833 -53 31.5 -75s35.667 -39.333 60 -52s50.833 -19 79.5 -19c24.667 0 48.5 3.83301 71.5 11.5s42.167 18.834 57.5 33.501l64 -63c-30 -22.667 -60.833 -39.5 -92.5 -50.5s-66.5 -16.5 -104.5 -16.5zM136.998 296.997l300.998 -0.00195312
c-4 26.667 -13.167 50.167 -27.5 70.5s-32 36.333 -53 48s-43.833 17.5 -68.5 17.5c-25.333 0 -48.666 -5.66699 -69.999 -17s-39.166 -27.166 -53.499 -47.499s-23.833 -44.166 -28.5 -71.499zM211.996 726.995l79 -76l78 76h82l-109 -126h-104l-109 126h83z" />
    <glyph glyph-name="Gcircumflex" unicode="&#x11c;" horiz-adv-x="790" 
d="M407 -11c-51.333 0 -99.166 9.33301 -143.499 28s-83.166 44.5 -116.499 77.5s-59.333 71.333 -78 115s-28 90.5 -28 140.5s9.16699 96.833 27.5 140.5s44.166 82 77.499 115s72 58.833 116 77.5s91.667 28 143 28c55.333 0 107.666 -10.667 156.999 -32s91 -51 125 -89
l-72 -70c-25.333 30 -56.5 53.167 -93.5 69.5s-75.833 24.5 -116.5 24.5c-36.667 0 -70.5 -6.66699 -101.5 -20s-58.167 -31.833 -81.5 -55.5s-41.5 -51.5 -54.5 -83.5s-19.5 -67 -19.5 -105c0 -37.333 6.5 -72.166 19.5 -104.499s31.333 -60.5 55 -84.5
s51.167 -42.667 82.5 -56s65.333 -20 102 -20c41.333 0 78.833 8.66699 112.5 26s61.167 41.166 82.5 71.499s34.333 64.5 39 102.5h-233v92h343v-36c0 -50 -8.66699 -96.333 -26 -139s-41.5 -80 -72.5 -112s-67.5 -56.833 -109.5 -74.5s-87.333 -26.5 -136 -26.5zM484 791
l-80 77l-79 -77h-81l109 127h104l109 -127h-82z" />
    <glyph glyph-name="gcircumflex" unicode="&#x11d;" horiz-adv-x="603" 
d="M311 -214c-37.333 0 -73.667 4.33203 -109 12.999s-67.333 21 -96 37l38 78c30 -15.333 58.167 -26.5 84.5 -33.5s52.833 -10.5 79.5 -10.5c44.667 0 78.5 10.333 101.5 31s34.5 51 34.5 91v58c-44.667 -35.333 -95.667 -53 -153 -53c-46.667 0 -89.5 11.5 -128.5 34.5
s-69.833 54.333 -92.5 94s-34 83.5 -34 131.5c0 48.667 11.5 92.834 34.5 132.501s54 71 93 94s82.833 34.5 131.5 34.5c27.333 0 53.833 -4.5 79.5 -13.5s49.167 -21.833 70.5 -38.5v43h99v-517c0 -66 -20.167 -116.833 -60.5 -152.5s-97.833 -53.5 -172.5 -53.5z
M303.999 82.999c29.333 0 56 5.16504 80 15.498s44 25.166 60 44.499v228c-16 18.667 -36.167 33.334 -60.5 44.001s-50.833 16 -79.5 16c-32 0 -60.833 -7.66699 -86.5 -23s-46 -36.166 -61 -62.499s-22.5 -55.833 -22.5 -88.5s7.5 -62.167 22.5 -88.5
s35.333 -47.166 61 -62.499s54.5 -23 86.5 -23zM378.999 599.997l-80 77l-79 -77h-81l109 127h104l109 -127h-82z" />
    <glyph glyph-name="Gbreve" unicode="&#x11e;" horiz-adv-x="790" 
d="M407 -11c-51.333 0 -99.166 9.33301 -143.499 28s-83.166 44.5 -116.499 77.5s-59.333 71.333 -78 115s-28 90.5 -28 140.5s9.16699 96.833 27.5 140.5s44.166 82 77.499 115s72 58.833 116 77.5s91.667 28 143 28c55.333 0 107.666 -10.667 156.999 -32s91 -51 125 -89
l-72 -70c-25.333 30 -56.5 53.167 -93.5 69.5s-75.833 24.5 -116.5 24.5c-36.667 0 -70.5 -6.66699 -101.5 -20s-58.167 -31.833 -81.5 -55.5s-41.5 -51.5 -54.5 -83.5s-19.5 -67 -19.5 -105c0 -37.333 6.5 -72.166 19.5 -104.499s31.333 -60.5 55 -84.5
s51.167 -42.667 82.5 -56s65.333 -20 102 -20c41.333 0 78.833 8.66699 112.5 26s61.167 41.166 82.5 71.499s34.333 64.5 39 102.5h-233v92h343v-36c0 -50 -8.66699 -96.333 -26 -139s-41.5 -80 -72.5 -112s-67.5 -56.833 -109.5 -74.5s-87.333 -26.5 -136 -26.5zM405 786
c-42 0 -77.333 11.333 -106 34s-47.667 54 -57 94l65 17c15.333 -56 48 -84 98 -84c24 0 44.333 7 61 21s29 35 37 63l65 -17c-9.33301 -40 -28.333 -71.333 -57 -94s-64 -34 -106 -34z" />
    <glyph glyph-name="gbreve" unicode="&#x11f;" horiz-adv-x="603" 
d="M311 -214c-37.333 0 -73.667 4.33203 -109 12.999s-67.333 21 -96 37l38 78c30 -15.333 58.167 -26.5 84.5 -33.5s52.833 -10.5 79.5 -10.5c44.667 0 78.5 10.333 101.5 31s34.5 51 34.5 91v58c-44.667 -35.333 -95.667 -53 -153 -53c-46.667 0 -89.5 11.5 -128.5 34.5
s-69.833 54.333 -92.5 94s-34 83.5 -34 131.5c0 48.667 11.5 92.834 34.5 132.501s54 71 93 94s82.833 34.5 131.5 34.5c27.333 0 53.833 -4.5 79.5 -13.5s49.167 -21.833 70.5 -38.5v43h99v-517c0 -66 -20.167 -116.833 -60.5 -152.5s-97.833 -53.5 -172.5 -53.5z
M303.999 82.999c29.333 0 56 5.16504 80 15.498s44 25.166 60 44.499v228c-16 18.667 -36.167 33.334 -60.5 44.001s-50.833 16 -79.5 16c-32 0 -60.833 -7.66699 -86.5 -23s-46 -36.166 -61 -62.499s-22.5 -55.833 -22.5 -88.5s7.5 -62.167 22.5 -88.5
s35.333 -47.166 61 -62.499s54.5 -23 86.5 -23zM299.999 594.997c-42 0 -77.333 11.333 -106 34s-47.667 54 -57 94l65 17c15.333 -56 48 -84 98 -84c24 0 44.333 7 61 21s29 35 37 63l65 -17c-9.33301 -40 -28.333 -71.333 -57 -94s-64 -34 -106 -34z" />
    <glyph glyph-name="Gdotaccent" unicode="&#x120;" horiz-adv-x="790" 
d="M407 -11c-51.333 0 -99.166 9.33301 -143.499 28s-83.166 44.5 -116.499 77.5s-59.333 71.333 -78 115s-28 90.5 -28 140.5s9.16699 96.833 27.5 140.5s44.166 82 77.499 115s72 58.833 116 77.5s91.667 28 143 28c55.333 0 107.666 -10.667 156.999 -32s91 -51 125 -89
l-72 -70c-25.333 30 -56.5 53.167 -93.5 69.5s-75.833 24.5 -116.5 24.5c-36.667 0 -70.5 -6.66699 -101.5 -20s-58.167 -31.833 -81.5 -55.5s-41.5 -51.5 -54.5 -83.5s-19.5 -67 -19.5 -105c0 -37.333 6.5 -72.166 19.5 -104.499s31.333 -60.5 55 -84.5
s51.167 -42.667 82.5 -56s65.333 -20 102 -20c41.333 0 78.833 8.66699 112.5 26s61.167 41.166 82.5 71.499s34.333 64.5 39 102.5h-233v92h343v-36c0 -50 -8.66699 -96.333 -26 -139s-41.5 -80 -72.5 -112s-67.5 -56.833 -109.5 -74.5s-87.333 -26.5 -136 -26.5zM405 793
c-16.667 0 -30.834 5.66699 -42.501 17s-17.5 25.333 -17.5 42c0 16 5.83301 29.667 17.5 41s25.834 17 42.501 17s30.834 -5.66699 42.501 -17s17.5 -25 17.5 -41c0 -16.667 -5.83301 -30.667 -17.5 -42s-25.834 -17 -42.501 -17z" />
    <glyph glyph-name="gdotaccent" unicode="&#x121;" horiz-adv-x="603" 
d="M311 -214c-37.333 0 -73.667 4.33203 -109 12.999s-67.333 21 -96 37l38 78c30 -15.333 58.167 -26.5 84.5 -33.5s52.833 -10.5 79.5 -10.5c44.667 0 78.5 10.333 101.5 31s34.5 51 34.5 91v58c-44.667 -35.333 -95.667 -53 -153 -53c-46.667 0 -89.5 11.5 -128.5 34.5
s-69.833 54.333 -92.5 94s-34 83.5 -34 131.5c0 48.667 11.5 92.834 34.5 132.501s54 71 93 94s82.833 34.5 131.5 34.5c27.333 0 53.833 -4.5 79.5 -13.5s49.167 -21.833 70.5 -38.5v43h99v-517c0 -66 -20.167 -116.833 -60.5 -152.5s-97.833 -53.5 -172.5 -53.5z
M303.999 82.999c29.333 0 56 5.16504 80 15.498s44 25.166 60 44.499v228c-16 18.667 -36.167 33.334 -60.5 44.001s-50.833 16 -79.5 16c-32 0 -60.833 -7.66699 -86.5 -23s-46 -36.166 -61 -62.499s-22.5 -55.833 -22.5 -88.5s7.5 -62.167 22.5 -88.5
s35.333 -47.166 61 -62.499s54.5 -23 86.5 -23zM299.999 601.997c-16.667 0 -30.834 5.66699 -42.501 17s-17.5 25.333 -17.5 42c0 16 5.83301 29.667 17.5 41s25.834 17 42.501 17s30.834 -5.66699 42.501 -17s17.5 -25 17.5 -41c0 -16.667 -5.83301 -30.667 -17.5 -42
s-25.834 -17 -42.501 -17z" />
    <glyph glyph-name="Gcommaaccent" unicode="&#x122;" horiz-adv-x="790" 
d="M407 -11c-51.333 0 -99.166 9.33301 -143.499 28s-83.166 44.5 -116.499 77.5s-59.333 71.333 -78 115s-28 90.5 -28 140.5s9.16699 96.833 27.5 140.5s44.166 82 77.499 115s72 58.833 116 77.5s91.667 28 143 28c55.333 0 107.666 -10.667 156.999 -32s91 -51 125 -89
l-72 -70c-25.333 30 -56.5 53.167 -93.5 69.5s-75.833 24.5 -116.5 24.5c-36.667 0 -70.5 -6.66699 -101.5 -20s-58.167 -31.833 -81.5 -55.5s-41.5 -51.5 -54.5 -83.5s-19.5 -67 -19.5 -105c0 -37.333 6.5 -72.166 19.5 -104.499s31.333 -60.5 55 -84.5
s51.167 -42.667 82.5 -56s65.333 -20 102 -20c41.333 0 78.833 8.66699 112.5 26s61.167 41.166 82.5 71.499s34.333 64.5 39 102.5h-233v92h343v-36c0 -50 -8.66699 -96.333 -26 -139s-41.5 -80 -72.5 -112s-67.5 -56.833 -109.5 -74.5s-87.333 -26.5 -136 -26.5zM316 -273
l46 189h96l-68 -189h-74z" />
    <glyph glyph-name="gcommaaccent" unicode="&#x123;" horiz-adv-x="602" 
d="M311 -214c-37.333 0 -73.667 4.33203 -109 12.999s-67.333 21 -96 37l38 78c30 -15.333 58.167 -26.5 84.5 -33.5s52.833 -10.5 79.5 -10.5c44.667 0 78.5 10.333 101.5 31s34.5 51 34.5 91v58c-44.667 -35.333 -95.667 -53 -153 -53c-46.667 0 -89.5 11.5 -128.5 34.5
s-69.833 54.333 -92.5 94s-34 83.5 -34 131.5c0 48.667 11.5 92.834 34.5 132.501s54 71 93 94s82.833 34.5 131.5 34.5c27.333 0 53.833 -4.5 79.5 -13.5s49.167 -21.833 70.5 -38.5v43h99v-517c0 -66 -20.167 -116.833 -60.5 -152.5s-97.833 -53.5 -172.5 -53.5z
M303.999 82.999c29.333 0 56 5.16504 80 15.498s44 25.166 60 44.499v228c-16 18.667 -36.167 33.334 -60.5 44.001s-50.833 16 -79.5 16c-32 0 -60.833 -7.66699 -86.5 -23s-46 -36.166 -61 -62.499s-22.5 -55.833 -22.5 -88.5s7.5 -62.167 22.5 -88.5
s35.333 -47.166 61 -62.499s54.5 -23 86.5 -23zM392.999 799.997l-46 -189h-96l68 189h74z" />
    <glyph glyph-name="Hcircumflex" unicode="&#x124;" horiz-adv-x="725" 
d="M71 0v700h105v-300h372v300h105v-700h-105v305h-372v-305h-105zM441 791l-80 77l-79 -77h-81l109 127h104l109 -127h-82z" />
    <glyph glyph-name="hcircumflex" unicode="&#x125;" horiz-adv-x="567" 
d="M59 0v699.999l100 22v-265c39.333 41.333 90.333 62 153 62c39.333 0 73.833 -8.33301 103.5 -25s53 -40 70 -70s25.5 -64.667 25.5 -104v-320h-100v303c0 40 -11.333 71.5 -34 94.5s-53.667 34.5 -93 34.5c-26.667 0 -50.667 -5.66699 -72 -17s-39 -27.666 -53 -48.999
v-366h-100zM187 790.999l-80 77l-79 -77h-81l109 127h104l109 -127h-82z" />
    <glyph glyph-name="Hbar" unicode="&#x126;" horiz-adv-x="739" 
d="M79 0v512h-66v82h66v106h105v-106h372v106h105v-106h65v-82h-65v-512h-105v305h-372v-305h-105zM184 399h372v113h-372v-113z" />
    <glyph glyph-name="hbar" unicode="&#x127;" horiz-adv-x="567" 
d="M59 0v582.999h-60v69h60v48l100 22v-70h153v-69h-153v-126c39.333 41.333 90.333 62 153 62c39.333 0 73.833 -8.33301 103.5 -25s53 -40 70 -70s25.5 -64.667 25.5 -104v-320h-100v303c0 40 -11.167 71.5 -33.5 94.5s-53.5 34.5 -93.5 34.5
c-26.667 0 -50.667 -5.66699 -72 -17s-39 -27.666 -53 -48.999v-366h-100z" />
    <glyph glyph-name="Itilde" unicode="&#x128;" horiz-adv-x="248" 
d="M71 0v700h105v-700h-105zM11 786l-66.001 13c16 72.667 50.333 109 103 109c18 0 35.667 -4.33301 53 -13s33.666 -17.5 48.999 -26.5s30 -13.5 44 -13.5c11.333 0 20.333 4.16699 27 12.5s12.334 22.833 17.001 43.5l64 -13c-7.33301 -36.667 -19.666 -64 -36.999 -82
s-39 -27 -65 -27c-17.333 0 -34.833 4.5 -52.5 13.5l-50 26.5c-15.667 8.66699 -30.167 13 -43.5 13c-12 0 -21.167 -4.33301 -27.5 -13s-11.5 -23 -15.5 -43z" />
    <glyph glyph-name="itilde" unicode="&#x129;" horiz-adv-x="218" 
d="M59 0v509h100v-509h-100zM-4 596l-66.001 13c16 72.667 50.333 109 103 109c18 0 35.667 -4.33301 53 -13s33.666 -17.5 48.999 -26.5s30 -13.5 44 -13.5c11.333 0 20.333 4.16699 27 12.5s12.334 22.833 17.001 43.5l64 -13c-7.33301 -36.667 -19.666 -64 -36.999 -82
s-39 -27 -65 -27c-17.333 0 -34.833 4.5 -52.5 13.5l-50 26.5c-15.667 8.66699 -30.167 13 -43.5 13c-12 0 -21.167 -4.33301 -27.5 -13s-11.5 -23 -15.5 -43z" />
    <glyph glyph-name="Imacron" unicode="&#x12a;" horiz-adv-x="248" 
d="M71 0v700h105v-700h-105zM-25 813v67h298v-67h-298z" />
    <glyph glyph-name="imacron" unicode="&#x12b;" horiz-adv-x="218" 
d="M59 0v509h100v-509h-100zM-40 622v67h298v-67h-298z" />
    <glyph glyph-name="Ibreve" unicode="&#x12c;" horiz-adv-x="248" 
d="M71 0v700h105v-700h-105zM124 786c-42 0 -77.333 11.333 -106 34s-47.667 54 -57 94l65 17c15.333 -56 48 -84 98 -84c24 0 44.333 7 61 21s29 35 37 63l65 -17c-9.33301 -40 -28.333 -71.333 -57 -94s-64 -34 -106 -34z" />
    <glyph glyph-name="ibreve" unicode="&#x12d;" horiz-adv-x="218" 
d="M59 0v509h100v-509h-100zM109 595c-42 0 -77.333 11.333 -106 34s-47.667 54 -57 94l65 17c15.333 -56 48 -84 98 -84c24 0 44.333 7 61 21s29 35 37 63l65 -17c-9.33301 -40 -28.333 -71.333 -57 -94s-64 -34 -106 -34z" />
    <glyph glyph-name="Iogonek" unicode="&#x12e;" horiz-adv-x="248" 
d="M115 -221c-30 0 -54.332 7.99902 -72.999 23.999s-28 37.333 -28 64c0 24 7.66699 46.5 23 67.5s39.666 42.833 72.999 65.5h-39v700h105v-700c-34 -20.667 -59 -40.5 -75 -59.5s-24 -37.833 -24 -56.5c0 -15.333 4.66699 -27.166 14 -35.499s23 -12.5 41 -12.5
c7.33301 0 15 1 23 3s15 5.33301 21 10l17 -48c-10.667 -6.66699 -22.667 -12 -36 -16s-27.333 -6 -42 -6z" />
    <glyph glyph-name="iogonek" unicode="&#x12f;" horiz-adv-x="218" 
d="M109 591c-16.667 0 -31 6.16699 -43 18.5s-18 26.833 -18 43.5c0 17.333 6 31.833 18 43.5s26.333 17.5 43 17.5c17.333 0 32 -5.83301 44 -17.5s18 -26.167 18 -43.5c0 -16.667 -6 -31.167 -18 -43.5s-26.667 -18.5 -44 -18.5zM98 -221
c-30.667 0 -55.166 7.99902 -73.499 23.999s-27.5 37.333 -27.5 64c0 24 7.5 46.5 22.5 67.5s39.167 42.833 72.5 65.5h-33v509h100v-509c-34 -20.667 -59 -40.5 -75 -59.5s-24 -37.833 -24 -56.5c0 -15.333 4.66699 -27.166 14 -35.499s22.666 -12.5 39.999 -12.5
c8 0 16 1 24 3s15 5.33301 21 10l17 -48c-11.333 -6.66699 -23.5 -12 -36.5 -16s-26.833 -6 -41.5 -6z" />
    <glyph glyph-name="Idotaccent" unicode="&#x130;" horiz-adv-x="248" 
d="M71 0v700h105v-700h-105zM124 793c-16.667 0 -30.834 5.66699 -42.501 17s-17.5 25.333 -17.5 42c0 16 5.83301 29.667 17.5 41s25.834 17 42.501 17s30.834 -5.66699 42.501 -17s17.5 -25 17.5 -41c0 -16.667 -5.83301 -30.667 -17.5 -42s-25.834 -17 -42.501 -17z" />
    <glyph glyph-name="dotlessi" unicode="&#x131;" horiz-adv-x="218" 
d="M59 0v509h100v-509h-100z" />
    <glyph glyph-name="IJ" unicode="&#x132;" horiz-adv-x="865" 
d="M71 0v700h105v-700h-105zM531 -11c-64.667 0 -120 16.501 -166 49.501s-79.333 79.833 -100 140.5l96 38c16.667 -44.667 39.167 -77.834 67.5 -99.501s62.5 -32.5 102.5 -32.5c52 0 93.5 16.667 124.5 50s46.5 78 46.5 134v431h105v-433
c0 -56 -11.333 -104.833 -34 -146.5s-54.667 -74 -96 -97s-90 -34.5 -146 -34.5z" />
    <glyph glyph-name="ij" unicode="&#x133;" horiz-adv-x="431" 
d="M59 0v509h100v-509h-100zM109 591c-16.667 0 -31 6.16699 -43 18.5s-18 26.833 -18 43.5c0 17.333 6 31.833 18 43.5s26.333 17.5 43 17.5c17.333 0 32 -5.83301 44 -17.5s18 -26.167 18 -43.5c0 -16.667 -6 -31.167 -18 -43.5s-26.667 -18.5 -44 -18.5zM325 591
c-16.667 0 -31 6.16699 -43 18.5s-18 26.833 -18 43.5c0 17.333 6 31.833 18 43.5s26.333 17.5 43 17.5c17.333 0 32 -5.83301 44 -17.5s18 -26.167 18 -43.5c0 -16.667 -6 -31.167 -18 -43.5s-26.667 -18.5 -44 -18.5zM230 -214c-10.667 0 -21.166 0.833008 -31.499 2.5
s-18.833 3.16699 -25.5 4.5v80c11.333 -2.66699 24.666 -4 39.999 -4c22 0 37.833 4.83301 47.5 14.5s14.5 25.5 14.5 47.5v578h100v-585c0 -44 -12.5 -78 -37.5 -102s-60.833 -36 -107.5 -36z" />
    <glyph glyph-name="Jcircumflex" unicode="&#x134;" horiz-adv-x="617" 
d="M283 -11c-64.667 0 -120 16.501 -166 49.501s-79.333 79.833 -100 140.5l96 38c16.667 -44.667 39.167 -77.834 67.5 -99.501s62.5 -32.5 102.5 -32.5c52 0 93.5 16.667 124.5 50s46.5 78 46.5 134v431h105v-433c0 -56 -11.333 -104.833 -34 -146.5s-54.667 -74 -96 -97
s-90 -34.5 -146 -34.5zM586 791.001l-80 77l-79 -77h-81l109 127h104l109 -127h-82z" />
    <glyph glyph-name="jcircumflex" unicode="&#x135;" horiz-adv-x="218" 
d="M15 -214c-10.667 0 -21 0.833008 -31 2.5l-27 4.5v80c12 -2.66699 25.667 -4 41 -4c22 0 37.667 4.83301 47 14.5s14 25.5 14 47.5v578h100v-586c0 -43.333 -12.5 -77 -37.5 -101s-60.5 -36 -106.5 -36zM188 600l-80 77l-79 -77h-81l109 127h104l109 -127h-82z" />
    <glyph glyph-name="Kcommaaccent" unicode="&#x136;" horiz-adv-x="650" 
d="M71 0v700h105v-324l339 324h133l-364 -339l375 -361h-144l-339 332v-332h-105zM248 -273l46 189h96l-68 -189h-74z" />
    <glyph glyph-name="kcommaaccent" unicode="&#x137;" horiz-adv-x="524" 
d="M59 0v700l100 19v-433l247 223h117l-263 -238l277 -271h-132l-246 239v-239h-100zM171 -273l46 189h96l-68 -189h-74z" />
    <glyph glyph-name="kgreenlandic" unicode="&#x138;" horiz-adv-x="524" 
d="M59 0v509h100v-223l247 223h117l-263 -238l277 -271h-132l-246 239v-239h-100z" />
    <glyph glyph-name="Lacute" unicode="&#x139;" horiz-adv-x="614" 
d="M71 0v700h105v-607h403v-93h-508zM52 794l92 122h121l-129 -122h-84z" />
    <glyph glyph-name="lacute" unicode="&#x13a;" horiz-adv-x="218" 
d="M59 0v700l100 19v-719h-100zM38 794l92 122h121l-129 -122h-84z" />
    <glyph glyph-name="Lcommaaccent" unicode="&#x13b;" horiz-adv-x="614" 
d="M71 0v700h105v-607h403v-93h-508zM252 -273l46 189h96l-68 -189h-74z" />
    <glyph glyph-name="lcommaaccent" unicode="&#x13c;" horiz-adv-x="218" 
d="M59 0v700l100 19v-719h-100zM15 -273l46 189h96l-68 -189h-74z" />
    <glyph glyph-name="Lcaron" unicode="&#x13d;" horiz-adv-x="609" 
d="M71 0v700h105v-607h403v-93h-508zM400 505l5 195l90 15l-29 -210h-66z" />
    <glyph glyph-name="lcaron" unicode="&#x13e;" horiz-adv-x="305" 
d="M59 0v700l100 19v-719h-100zM228 505l5 195l90 15l-29 -210h-66z" />
    <glyph glyph-name="Ldot" unicode="&#x13f;" horiz-adv-x="609" 
d="M71 0v700h105v-607h403v-93h-508zM420 302c-16.667 0 -30.834 5.66699 -42.501 17s-17.5 25.333 -17.5 42c0 16 5.83301 29.667 17.5 41s25.834 17 42.501 17s30.834 -5.66699 42.501 -17s17.5 -25 17.5 -41c0 -16.667 -5.83301 -30.667 -17.5 -42
s-25.834 -17 -42.501 -17z" />
    <glyph glyph-name="ldot" unicode="&#x140;" horiz-adv-x="337" 
d="M59 0v700l100 19v-719h-100zM279 296c-16.667 0 -30.834 5.66699 -42.501 17s-17.5 25.333 -17.5 42c0 16 5.83301 29.667 17.5 41s25.834 17 42.501 17s30.834 -5.66699 42.501 -17s17.5 -25 17.5 -41c0 -16.667 -5.83301 -30.667 -17.5 -42s-25.834 -17 -42.501 -17z
" />
    <glyph glyph-name="Lslash" unicode="&#x141;" horiz-adv-x="627" 
d="M90 0v223l-79 -57v94l79 57v383h105v-313l191 136v-94l-191 -136v-200h403v-93h-508z" />
    <glyph glyph-name="lslash" unicode="&#x142;" horiz-adv-x="260" 
d="M81 0v292l-73 -57v95l73 57v313l100 22v-260l73 56v-95l-73 -57v-366h-100z" />
    <glyph glyph-name="Nacute" unicode="&#x143;" horiz-adv-x="735" 
d="M71 0v700h102l391 -520v520h99v-700h-92l-400 536v-536h-100zM296 794l92 122h121l-129 -122h-84z" />
    <glyph glyph-name="nacute" unicode="&#x144;" horiz-adv-x="567" 
d="M59 0v508.999h100v-52c39.333 41.333 90.333 62 153 62c39.333 0 73.833 -8.33301 103.5 -25s53 -40 70 -70s25.5 -64.667 25.5 -104v-320h-100v303c0 40 -11.167 71.5 -33.5 94.5s-53.5 34.5 -93.5 34.5c-26.667 0 -50.667 -5.66699 -72 -17s-39 -27.666 -53 -48.999
v-366h-100zM214 602.999l92 122h121l-129 -122h-84z" />
    <glyph glyph-name="Ncommaaccent" unicode="&#x145;" horiz-adv-x="735" 
d="M71 0v700h102l391 -520v520h99v-700h-92l-400 536v-536h-100zM273 -273l46 189h96l-68 -189h-74z" />
    <glyph glyph-name="ncommaaccent" unicode="&#x146;" horiz-adv-x="567" 
d="M59 0v508.999h100v-52c39.333 41.333 90.333 62 153 62c39.333 0 73.833 -8.33301 103.5 -25s53 -40 70 -70s25.5 -64.667 25.5 -104v-320h-100v303c0 40 -11.167 71.5 -33.5 94.5s-53.5 34.5 -93.5 34.5c-26.667 0 -50.667 -5.66699 -72 -17s-39 -27.666 -53 -48.999
v-366h-100zM192 -273.001l46 189h96l-68 -189h-74z" />
    <glyph glyph-name="Ncaron" unicode="&#x147;" horiz-adv-x="735" 
d="M71 0v700h102l391 -520v520h99v-700h-92l-400 536v-536h-100zM289 918l79 -76l78 76h82l-109 -126h-104l-109 126h83z" />
    <glyph glyph-name="ncaron" unicode="&#x148;" horiz-adv-x="567" 
d="M59 0v508.999h100v-52c39.333 41.333 90.333 62 153 62c39.333 0 73.833 -8.33301 103.5 -25s53 -40 70 -70s25.5 -64.667 25.5 -104v-320h-100v303c0 40 -11.167 71.5 -33.5 94.5s-53.5 34.5 -93.5 34.5c-26.667 0 -50.667 -5.66699 -72 -17s-39 -27.666 -53 -48.999
v-366h-100zM207 726.999l79 -76l78 76h82l-109 -126h-104l-109 126h83z" />
    <glyph glyph-name="Eng" unicode="&#x14a;" horiz-adv-x="735" 
d="M519 -210c-8.66699 0 -18.833 0.833008 -30.5 2.5s-20.5 3.16699 -26.5 4.5v80c12 -2.66699 25.333 -4 40 -4c22 0 37.833 4.83301 47.5 14.5s14.5 25.5 14.5 47.5v67l-393 528v-530h-100v700h97l396 -528v528h99v-773c0 -43.333 -12.5 -77 -37.5 -101
s-60.5 -36 -106.5 -36z" />
    <glyph glyph-name="eng" unicode="&#x14b;" horiz-adv-x="567" 
d="M366 -211c-9.33301 0 -19.168 0.832031 -29.501 2.49902l-27.5 4.5v80c12 -2.66699 26 -4 42 -4c20.667 0 35.834 4.83301 45.501 14.5s14.5 25.5 14.5 47.5v369c0 40 -11.333 71.5 -34 94.5s-53.667 34.5 -93 34.5c-26.667 0 -50.667 -5.66699 -72 -17
s-39 -27.666 -53 -48.999v-366h-100v509h100v-52c39.333 41.333 90.333 62 153 62c39.333 0 73.833 -8.33301 103.5 -25s53 -40 70 -70s25.5 -64.667 25.5 -104v-394c0 -43.333 -12.5 -77 -37.5 -101s-60.833 -36 -107.5 -36z" />
    <glyph glyph-name="Omacron" unicode="&#x14c;" horiz-adv-x="810" 
d="M405 -11c-50.667 0 -98 9.16699 -142 27.5s-82.833 44 -116.5 77s-59.667 71.333 -78 115s-27.5 90.834 -27.5 141.501s9.16699 97.834 27.5 141.501s44.333 82 78 115s72.5 58.667 116.5 77s91.333 27.5 142 27.5s98.167 -9.16699 142.5 -27.5s83.166 -44 116.499 -77
s59.333 -71.333 78 -115s28 -90.834 28 -141.501s-9.33301 -97.834 -28 -141.501s-44.667 -82 -78 -115s-72.166 -58.667 -116.499 -77s-91.833 -27.5 -142.5 -27.5zM406 86c36 0 69.5 6.66797 100.5 20.001s58.167 31.833 81.5 55.5s41.666 51.667 54.999 84
s20 67.166 20 104.499c0 38 -6.66699 73 -20 105s-31.666 59.833 -54.999 83.5s-50.5 42.167 -81.5 55.5s-64.5 20 -100.5 20c-36.667 0 -70.667 -6.66699 -102 -20s-58.666 -31.833 -81.999 -55.5s-41.5 -51.5 -54.5 -83.5s-19.5 -66.667 -19.5 -104
c0 -38 6.5 -73.167 19.5 -105.5s31.167 -60.333 54.5 -84s50.666 -42.167 81.999 -55.5s65.333 -20 102 -20zM257 813.001v67h298v-67h-298z" />
    <glyph glyph-name="omacron" unicode="&#x14d;" horiz-adv-x="602" 
d="M301 -10c-49.333 0 -94.166 11.667 -134.499 35s-72.166 55 -95.499 95s-35 84.667 -35 134s11.667 94 35 134s55.166 71.833 95.499 95.5s85.166 35.5 134.499 35.5c50 0 95 -11.833 135 -35.5s71.667 -55.5 95 -95.5s35 -84.667 35 -134s-11.667 -94 -35 -134
s-55 -71.667 -95 -95s-85 -35 -135 -35zM301 78c31.333 0 59.668 7.83301 85.001 23.5s45.333 36.834 60 63.501s22 56.667 22 90c0 32.667 -7.5 62.167 -22.5 88.5s-35 47.5 -60 63.5s-53.167 24 -84.5 24s-59.5 -8 -84.5 -24s-45 -37.167 -60 -63.5
s-22.5 -55.833 -22.5 -88.5c0 -33.333 7.33301 -63.333 22 -90s34.667 -47.834 60 -63.501s53.666 -23.5 84.999 -23.5zM152.002 622v67h298v-67h-298z" />
    <glyph glyph-name="Obreve" unicode="&#x14e;" horiz-adv-x="810" 
d="M405 -11c-50.667 0 -98 9.16699 -142 27.5s-82.833 44 -116.5 77s-59.667 71.333 -78 115s-27.5 90.834 -27.5 141.501s9.16699 97.834 27.5 141.501s44.333 82 78 115s72.5 58.667 116.5 77s91.333 27.5 142 27.5s98.167 -9.16699 142.5 -27.5s83.166 -44 116.499 -77
s59.333 -71.333 78 -115s28 -90.834 28 -141.501s-9.33301 -97.834 -28 -141.501s-44.667 -82 -78 -115s-72.166 -58.667 -116.499 -77s-91.833 -27.5 -142.5 -27.5zM406 86c36 0 69.5 6.66797 100.5 20.001s58.167 31.833 81.5 55.5s41.666 51.667 54.999 84
s20 67.166 20 104.499c0 38 -6.66699 73 -20 105s-31.666 59.833 -54.999 83.5s-50.5 42.167 -81.5 55.5s-64.5 20 -100.5 20c-36.667 0 -70.667 -6.66699 -102 -20s-58.666 -31.833 -81.999 -55.5s-41.5 -51.5 -54.5 -83.5s-19.5 -66.667 -19.5 -104
c0 -38 6.5 -73.167 19.5 -105.5s31.167 -60.333 54.5 -84s50.666 -42.167 81.999 -55.5s65.333 -20 102 -20zM406 786.001c-42 0 -77.333 11.333 -106 34s-47.667 54 -57 94l65 17c15.333 -56 48 -84 98 -84c24 0 44.333 7 61 21s29 35 37 63l65 -17
c-9.33301 -40 -28.333 -71.333 -57 -94s-64 -34 -106 -34z" />
    <glyph glyph-name="obreve" unicode="&#x14f;" horiz-adv-x="602" 
d="M301 -10c-49.333 0 -94.166 11.667 -134.499 35s-72.166 55 -95.499 95s-35 84.667 -35 134s11.667 94 35 134s55.166 71.833 95.499 95.5s85.166 35.5 134.499 35.5c50 0 95 -11.833 135 -35.5s71.667 -55.5 95 -95.5s35 -84.667 35 -134s-11.667 -94 -35 -134
s-55 -71.667 -95 -95s-85 -35 -135 -35zM301 78c31.333 0 59.668 7.83301 85.001 23.5s45.333 36.834 60 63.501s22 56.667 22 90c0 32.667 -7.5 62.167 -22.5 88.5s-35 47.5 -60 63.5s-53.167 24 -84.5 24s-59.5 -8 -84.5 -24s-45 -37.167 -60 -63.5
s-22.5 -55.833 -22.5 -88.5c0 -33.333 7.33301 -63.333 22 -90s34.667 -47.834 60 -63.501s53.666 -23.5 84.999 -23.5zM301.002 595c-42 0 -77.333 11.333 -106 34s-47.667 54 -57 94l65 17c15.333 -56 48 -84 98 -84c24 0 44.333 7 61 21s29 35 37 63l65 -17
c-9.33301 -40 -28.333 -71.333 -57 -94s-64 -34 -106 -34z" />
    <glyph glyph-name="Ohungarumlaut" unicode="&#x150;" horiz-adv-x="810" 
d="M405 -11c-50.667 0 -98 9.16699 -142 27.5s-82.833 44 -116.5 77s-59.667 71.333 -78 115s-27.5 90.834 -27.5 141.501s9.16699 97.834 27.5 141.501s44.333 82 78 115s72.5 58.667 116.5 77s91.333 27.5 142 27.5s98.167 -9.16699 142.5 -27.5s83.166 -44 116.499 -77
s59.333 -71.333 78 -115s28 -90.834 28 -141.501s-9.33301 -97.834 -28 -141.501s-44.667 -82 -78 -115s-72.166 -58.667 -116.499 -77s-91.833 -27.5 -142.5 -27.5zM406 86c36 0 69.5 6.66797 100.5 20.001s58.167 31.833 81.5 55.5s41.666 51.667 54.999 84
s20 67.166 20 104.499c0 38 -6.66699 73 -20 105s-31.666 59.833 -54.999 83.5s-50.5 42.167 -81.5 55.5s-64.5 20 -100.5 20c-36.667 0 -70.667 -6.66699 -102 -20s-58.666 -31.833 -81.999 -55.5s-41.5 -51.5 -54.5 -83.5s-19.5 -66.667 -19.5 -104
c0 -38 6.5 -73.167 19.5 -105.5s31.167 -60.333 54.5 -84s50.666 -42.167 81.999 -55.5s65.333 -20 102 -20zM268 797.001l103 119h107l-130 -119h-80zM450 797.001l103 119h108l-135 -119h-76z" />
    <glyph glyph-name="ohungarumlaut" unicode="&#x151;" horiz-adv-x="602" 
d="M301 -10c-49.333 0 -94.166 11.667 -134.499 35s-72.166 55 -95.499 95s-35 84.667 -35 134s11.667 94 35 134s55.166 71.833 95.499 95.5s85.166 35.5 134.499 35.5c50 0 95 -11.833 135 -35.5s71.667 -55.5 95 -95.5s35 -84.667 35 -134s-11.667 -94 -35 -134
s-55 -71.667 -95 -95s-85 -35 -135 -35zM301 78c31.333 0 59.668 7.83301 85.001 23.5s45.333 36.834 60 63.501s22 56.667 22 90c0 32.667 -7.5 62.167 -22.5 88.5s-35 47.5 -60 63.5s-53.167 24 -84.5 24s-59.5 -8 -84.5 -24s-45 -37.167 -60 -63.5
s-22.5 -55.833 -22.5 -88.5c0 -33.333 7.33301 -63.333 22 -90s34.667 -47.834 60 -63.501s53.666 -23.5 84.999 -23.5zM163.002 606l103 119h107l-130 -119h-80zM345.002 606l103 119h108l-135 -119h-76z" />
    <glyph glyph-name="OE" unicode="&#x152;" horiz-adv-x="1091" 
d="M396 0c-49.333 0 -95.333 9.00098 -138 27.001s-80 43 -112 75s-57.167 69.167 -75.5 111.5s-27.5 87.833 -27.5 136.5s9.16699 94.167 27.5 136.5s43.5 79.5 75.5 111.5s69.333 57 112 75s88.667 27 138 27h658v-92h-428c32.667 -24 59.5 -54.333 80.5 -91
s33.833 -76.334 38.5 -119.001h182v-89h-181c-4.66699 -44 -17.5 -84.833 -38.5 -122.5s-48.167 -69.167 -81.5 -94.5h428v-92h-658zM397 94.001c34 0 66 6.5 96 19.5s56.167 31.167 78.5 54.5s39.833 50.5 52.5 81.5s19 64.5 19 100.5s-6.33301 69.5 -19 100.5
s-30.167 58.167 -52.5 81.5s-48.5 41.5 -78.5 54.5s-62 19.5 -96 19.5c-34.667 0 -67 -6.5 -97 -19.5s-56.167 -31.167 -78.5 -54.5s-39.833 -50.5 -52.5 -81.5s-19 -64.5 -19 -100.5s6.33301 -69.5 19 -100.5s30.167 -58.167 52.5 -81.5s48.5 -41.5 78.5 -54.5
s62.333 -19.5 97 -19.5z" />
    <glyph glyph-name="oe" unicode="&#x153;" horiz-adv-x="1006" 
d="M301 -10c-49.333 0 -94.167 11.6689 -134.5 35.002s-72.166 55.166 -95.499 95.499s-35 85.166 -35 134.499s11.667 94 35 134s55.166 71.667 95.499 95s85.166 35 134.499 35c45.333 0 86.833 -10.5 124.5 -31.5s67.5 -49.5 89.5 -85.5
c22.667 34.667 52.167 62.667 88.5 84s76.5 32 120.5 32c46.667 0 88.5 -11.833 125.5 -35.5s66.167 -55.667 87.5 -96s32 -85.833 32 -136.5v-28h-400c5.33301 -28 15.666 -53 30.999 -75s35.333 -39.333 60 -52s51.334 -19 80.001 -19
c24.667 0 48.334 3.83301 71.001 11.5s42 18.834 58 33.501l64 -63c-30 -22.667 -61 -39.5 -93 -50.5s-66.667 -16.5 -104 -16.5c-47.333 0 -90.166 10.667 -128.499 32s-68.833 49.666 -91.5 84.999c-22.667 -36 -52.834 -64.667 -90.501 -86s-79.167 -32 -124.5 -32z
M300.999 78.002c31.333 0 59.666 7.83301 84.999 23.5s45.166 37 59.499 64s21.5 56.833 21.5 89.5c0 33.333 -7.16699 63.166 -21.5 89.499s-34.166 47.333 -59.499 63s-53.666 23.5 -84.999 23.5s-59.5 -7.83301 -84.5 -23.5s-45 -36.667 -60 -63
s-22.5 -56.166 -22.5 -89.499c0 -32.667 7.5 -62.5 22.5 -89.5s35 -48.333 60 -64s53.167 -23.5 84.5 -23.5zM569.999 297.002l300.999 -0.00195312c-4.66699 26.667 -14.167 50.167 -28.5 70.5s-31.833 36.333 -52.5 48s-43.667 17.5 -69 17.5
s-48.666 -5.66699 -69.999 -17s-39 -27.166 -53 -47.499s-23.333 -44.166 -28 -71.499z" />
    <glyph glyph-name="Racute" unicode="&#x154;" horiz-adv-x="659" 
d="M71 0v700h317c46.667 0 87.5 -8.66699 122.5 -26s62.333 -41.5 82 -72.5s29.5 -67.167 29.5 -108.5c0 -46 -13 -85.667 -39 -119s-61 -57.333 -105 -72l156 -302h-116l-145 287h-197v-287h-105zM176 375h204c41.333 0 74.5 10.5 99.5 31.5s37.5 49.5 37.5 85.5
c0 34.667 -12.5 62.667 -37.5 84s-58.167 32 -99.5 32h-204v-233zM255 794l92 122h121l-129 -122h-84z" />
    <glyph glyph-name="racute" unicode="&#x155;" horiz-adv-x="371" 
d="M59 0v509h100v-65c16 24 35.833 42.833 59.5 56.5s50.5 20.5 80.5 20.5c20.667 -0.666992 37.667 -3.66699 51 -9v-90c-9.33301 4 -19 6.83301 -29 8.5s-20 2.5 -30 2.5c-29.333 0 -55.333 -7.83301 -78 -23.5s-40.667 -38.5 -54 -68.5v-341h-100zM131 603l92 122h121
l-129 -122h-84z" />
    <glyph glyph-name="Rcommaaccent" unicode="&#x156;" horiz-adv-x="659" 
d="M71 0v700h317c46.667 0 87.5 -8.66699 122.5 -26s62.333 -41.5 82 -72.5s29.5 -67.167 29.5 -108.5c0 -46 -13 -85.667 -39 -119s-61 -57.333 -105 -72l156 -302h-116l-145 287h-197v-287h-105zM176 375h204c41.333 0 74.5 10.5 99.5 31.5s37.5 49.5 37.5 85.5
c0 34.667 -12.5 62.667 -37.5 84s-58.167 32 -99.5 32h-204v-233zM237 -273l46 189h96l-68 -189h-74z" />
    <glyph glyph-name="rcommaaccent" unicode="&#x157;" horiz-adv-x="371" 
d="M59 0v509h100v-65c16 24 35.833 42.833 59.5 56.5s50.5 20.5 80.5 20.5c20.667 -0.666992 37.667 -3.66699 51 -9v-90c-9.33301 4 -19 6.83301 -29 8.5s-20 2.5 -30 2.5c-29.333 0 -55.333 -7.83301 -78 -23.5s-40.667 -38.5 -54 -68.5v-341h-100zM14 -273l46 189h96
l-68 -189h-74z" />
    <glyph glyph-name="Rcaron" unicode="&#x158;" horiz-adv-x="659" 
d="M71 0v700h317c46.667 0 87.5 -8.66699 122.5 -26s62.333 -41.5 82 -72.5s29.5 -67.167 29.5 -108.5c0 -46 -13 -85.667 -39 -119s-61 -57.333 -105 -72l156 -302h-116l-145 287h-197v-287h-105zM176 375h204c41.333 0 74.5 10.5 99.5 31.5s37.5 49.5 37.5 85.5
c0 34.667 -12.5 62.667 -37.5 84s-58.167 32 -99.5 32h-204v-233zM248 918l79 -76l78 76h82l-109 -126h-104l-109 126h83z" />
    <glyph glyph-name="rcaron" unicode="&#x159;" horiz-adv-x="371" 
d="M59 0v509h100v-65c16 24 35.833 42.833 59.5 56.5s50.5 20.5 80.5 20.5c20.667 -0.666992 37.667 -3.66699 51 -9v-90c-9.33301 4 -19 6.83301 -29 8.5s-20 2.5 -30 2.5c-29.333 0 -55.333 -7.83301 -78 -23.5s-40.667 -38.5 -54 -68.5v-341h-100zM124 727l79 -76l78 76
h82l-109 -126h-104l-109 126h83z" />
    <glyph glyph-name="Sacute" unicode="&#x15a;" horiz-adv-x="613" 
d="M308 -10c-56 0 -109.999 11.001 -161.999 33.001s-98 53 -138 93l64 74c38 -37.333 76.833 -65 116.5 -83s81.167 -27 124.5 -27c34 0 63.833 4.83301 89.5 14.5s45.5 23.5 59.5 41.5s21 38.333 21 61c0 31.333 -11 55.333 -33 72s-58.333 29.334 -109 38.001l-117 19
c-64 11.333 -111.833 32 -143.5 62s-47.5 70 -47.5 120c0 40 10.667 75.167 32 105.5s51.5 53.833 90.5 70.5s84.167 25 135.5 25c50.667 0 100.5 -8.16699 149.5 -24.5s93.167 -39.833 132.5 -70.5l-58 -80c-75.333 57.333 -151.666 86 -228.999 86
c-30.667 0 -57.334 -4.33301 -80.001 -13s-40.334 -20.834 -53.001 -36.501s-19 -33.834 -19 -54.501c0 -28.667 9.66699 -50.5 29 -65.5s51.333 -25.833 96 -32.5l113 -19c74 -12 128.333 -33.667 163 -65s52 -74.333 52 -129c0 -42.667 -11.667 -80.167 -35 -112.5
s-56 -57.5 -98 -75.5s-90.667 -27 -146 -27zM218.001 795.001l92 122h121l-129 -122h-84z" />
    <glyph glyph-name="sacute" unicode="&#x15b;" horiz-adv-x="465" 
d="M234 -10c-44 0 -85.167 6.49902 -123.5 19.499s-71.5 31.5 -99.5 55.5l55 66c26 -20.667 52.833 -36.5 80.5 -47.5s55.834 -16.5 84.501 -16.5c36 0 65.333 7 88 21s34 32.333 34 55c0 18.667 -6.66699 33.334 -20 44.001s-34 18 -62 22l-92 13
c-50.667 7.33301 -88.667 23 -114 47s-38 56 -38 96c0 30.667 8.33301 57.5 25 80.5s40 41 70 54s65 19.5 105 19.5c36.667 0 72 -5.33301 106 -16s66.667 -27.334 98 -50.001l-51 -66c-28 18.667 -55.167 32.334 -81.5 41.001s-52.833 13 -79.5 13
c-30.667 0 -55.334 -6.5 -74.001 -19.5s-28 -29.833 -28 -50.5c0 -18.667 6.5 -33.167 19.5 -43.5s34.5 -17.5 64.5 -21.5l92 -13c50.667 -7.33301 89 -22.833 115 -46.5s39 -55.5 39 -95.5c0 -30.667 -9.33301 -58.167 -28 -82.5s-44 -43.5 -76 -57.5s-68.333 -21 -109 -21
zM159 602.999l92 122h121l-129 -122h-84z" />
    <glyph glyph-name="Scircumflex" unicode="&#x15c;" horiz-adv-x="613" 
d="M308 -10c-56 0 -109.999 11.001 -161.999 33.001s-98 53 -138 93l64 74c38 -37.333 76.833 -65 116.5 -83s81.167 -27 124.5 -27c34 0 63.833 4.83301 89.5 14.5s45.5 23.5 59.5 41.5s21 38.333 21 61c0 31.333 -11 55.333 -33 72s-58.333 29.334 -109 38.001l-117 19
c-64 11.333 -111.833 32 -143.5 62s-47.5 70 -47.5 120c0 40 10.667 75.167 32 105.5s51.5 53.833 90.5 70.5s84.167 25 135.5 25c50.667 0 100.5 -8.16699 149.5 -24.5s93.167 -39.833 132.5 -70.5l-58 -80c-75.333 57.333 -151.666 86 -228.999 86
c-30.667 0 -57.334 -4.33301 -80.001 -13s-40.334 -20.834 -53.001 -36.501s-19 -33.834 -19 -54.501c0 -28.667 9.66699 -50.5 29 -65.5s51.333 -25.833 96 -32.5l113 -19c74 -12 128.333 -33.667 163 -65s52 -74.333 52 -129c0 -42.667 -11.667 -80.167 -35 -112.5
s-56 -57.5 -98 -75.5s-90.667 -27 -146 -27zM368.001 792.001l-80 77l-79 -77h-81l109 127h104l109 -127h-82z" />
    <glyph glyph-name="scircumflex" unicode="&#x15d;" horiz-adv-x="465" 
d="M234 -10c-44 0 -85.167 6.49902 -123.5 19.499s-71.5 31.5 -99.5 55.5l55 66c26 -20.667 52.833 -36.5 80.5 -47.5s55.834 -16.5 84.501 -16.5c36 0 65.333 7 88 21s34 32.333 34 55c0 18.667 -6.66699 33.334 -20 44.001s-34 18 -62 22l-92 13
c-50.667 7.33301 -88.667 23 -114 47s-38 56 -38 96c0 30.667 8.33301 57.5 25 80.5s40 41 70 54s65 19.5 105 19.5c36.667 0 72 -5.33301 106 -16s66.667 -27.334 98 -50.001l-51 -66c-28 18.667 -55.167 32.334 -81.5 41.001s-52.833 13 -79.5 13
c-30.667 0 -55.334 -6.5 -74.001 -19.5s-28 -29.833 -28 -50.5c0 -18.667 6.5 -33.167 19.5 -43.5s34.5 -17.5 64.5 -21.5l92 -13c50.667 -7.33301 89 -22.833 115 -46.5s39 -55.5 39 -95.5c0 -30.667 -9.33301 -58.167 -28 -82.5s-44 -43.5 -76 -57.5s-68.333 -21 -109 -21
zM309 599.999l-80 77l-79 -77h-81l109 127h104l109 -127h-82z" />
    <glyph glyph-name="Scedilla" unicode="&#x15e;" horiz-adv-x="613" 
d="M280 -230c-47.333 0 -86.6689 14.332 -118.002 42.999l37 38c24.667 -20 51.667 -30 81 -30c18.667 0 33.334 4 44.001 12s16 18.667 16 32s-5.66699 23.833 -17 31.5s-26.666 11.5 -45.999 11.5h-35l25 84c-48.667 5.33301 -95.334 18.5 -140.001 39.5
s-84.334 49.167 -119.001 84.5l64 74c38 -37.333 76.833 -65 116.5 -83s81.167 -27 124.5 -27c34 0 63.833 4.83301 89.5 14.5s45.5 23.5 59.5 41.5s21 38.333 21 61c0 31.333 -11 55.333 -33 72s-58.333 29.334 -109 38.001l-117 19c-64 11.333 -111.833 32 -143.5 62
s-47.5 70 -47.5 120c0 40 10.667 75.167 32 105.5s51.5 53.833 90.5 70.5s84.167 25 135.5 25c50.667 0 100.5 -8.16699 149.5 -24.5s93.167 -39.833 132.5 -70.5l-58 -80c-75.333 57.333 -151.666 86 -228.999 86c-30.667 0 -57.334 -4.33301 -80.001 -13
s-40.334 -20.834 -53.001 -36.501s-19 -33.834 -19 -54.501c0 -28.667 9.66699 -50.5 29 -65.5s51.333 -25.833 96 -32.5l113 -19c74 -12 128.333 -33.667 163 -65s52 -74.333 52 -129c0 -41.333 -11.167 -78.166 -33.5 -110.499s-53.666 -57.5 -93.999 -75.5
s-87.166 -27.667 -140.499 -29l-11 -40c29.333 -1.33301 52.5 -9.66602 69.5 -24.999s25.5 -35.333 25.5 -60c0 -27.333 -11.667 -50 -35 -68s-52.666 -27 -87.999 -27z" />
    <glyph glyph-name="scedilla" unicode="&#x15f;" horiz-adv-x="465" 
d="M219 -231c-47.333 0 -86.667 14.332 -118 42.999l36 38c25.333 -20.667 52.333 -31 81 -31c19.333 0 34.166 4.16699 44.499 12.5s15.5 19.166 15.5 32.499s-5.66699 23.833 -17 31.5s-26.666 11.5 -45.999 11.5h-34l25 85c-38 2 -73.833 9.5 -107.5 22.5
s-62.834 30.167 -87.501 51.5l55 66c26 -20.667 52.833 -36.5 80.5 -47.5s55.834 -16.5 84.501 -16.5c36 0 65.333 7 88 21s34 32.333 34 55c0 18 -6.66699 32.333 -20 43s-34 18 -62 22l-92 13c-50.667 7.33301 -88.667 22.833 -114 46.5s-38 55.5 -38 95.5
c0 30 8.33301 56.5 25 79.5s40 41 70 54s65 19.5 105 19.5c36.667 0 72 -5.33301 106 -16s66.667 -27 98 -49l-51 -66c-28 18.667 -55.167 32.334 -81.5 41.001s-52.833 13 -79.5 13c-30.667 0 -55.334 -6.5 -74.001 -19.5s-28 -29.833 -28 -50.5c0 -18 6.5 -32 19.5 -42
s34.5 -17.333 64.5 -22l92 -13c50.667 -7.33301 89 -22.833 115 -46.5s39 -55.5 39 -95.5c0 -28 -8.16699 -53.5 -24.5 -76.5s-38.666 -41.667 -66.999 -56s-60.833 -23.166 -97.5 -26.499l-12 -43c29.333 -2 52.5 -10.667 69.5 -26s25.5 -35 25.5 -59
c0 -27.333 -11.5 -50 -34.5 -68s-52.167 -27 -87.5 -27z" />
    <glyph glyph-name="Scaron" unicode="&#x160;" horiz-adv-x="613" 
d="M308 -10c-56 0 -109.999 11.001 -161.999 33.001s-98 53 -138 93l64 74c38 -37.333 76.833 -65 116.5 -83s81.167 -27 124.5 -27c34 0 63.833 4.83301 89.5 14.5s45.5 23.5 59.5 41.5s21 38.333 21 61c0 31.333 -11 55.333 -33 72s-58.333 29.334 -109 38.001l-117 19
c-64 11.333 -111.833 32 -143.5 62s-47.5 70 -47.5 120c0 40 10.667 75.167 32 105.5s51.5 53.833 90.5 70.5s84.167 25 135.5 25c50.667 0 100.5 -8.16699 149.5 -24.5s93.167 -39.833 132.5 -70.5l-58 -80c-75.333 57.333 -151.666 86 -228.999 86
c-30.667 0 -57.334 -4.33301 -80.001 -13s-40.334 -20.834 -53.001 -36.501s-19 -33.834 -19 -54.501c0 -28.667 9.66699 -50.5 29 -65.5s51.333 -25.833 96 -32.5l113 -19c74 -12 128.333 -33.667 163 -65s52 -74.333 52 -129c0 -42.667 -11.667 -80.167 -35 -112.5
s-56 -57.5 -98 -75.5s-90.667 -27 -146 -27zM211.001 919.001l79 -76l78 76h82l-109 -126h-104l-109 126h83z" />
    <glyph glyph-name="scaron" unicode="&#x161;" horiz-adv-x="465" 
d="M234 -10c-44 0 -85.167 6.49902 -123.5 19.499s-71.5 31.5 -99.5 55.5l55 66c26 -20.667 52.833 -36.5 80.5 -47.5s55.834 -16.5 84.501 -16.5c36 0 65.333 7 88 21s34 32.333 34 55c0 18.667 -6.66699 33.334 -20 44.001s-34 18 -62 22l-92 13
c-50.667 7.33301 -88.667 23 -114 47s-38 56 -38 96c0 30.667 8.33301 57.5 25 80.5s40 41 70 54s65 19.5 105 19.5c36.667 0 72 -5.33301 106 -16s66.667 -27.334 98 -50.001l-51 -66c-28 18.667 -55.167 32.334 -81.5 41.001s-52.833 13 -79.5 13
c-30.667 0 -55.334 -6.5 -74.001 -19.5s-28 -29.833 -28 -50.5c0 -18.667 6.5 -33.167 19.5 -43.5s34.5 -17.5 64.5 -21.5l92 -13c50.667 -7.33301 89 -22.833 115 -46.5s39 -55.5 39 -95.5c0 -30.667 -9.33301 -58.167 -28 -82.5s-44 -43.5 -76 -57.5s-68.333 -21 -109 -21
zM152 726.999l79 -76l78 76h82l-109 -126h-104l-109 126h83z" />
    <glyph glyph-name="Tcedilla" unicode="&#x162;" horiz-adv-x="631" 
d="M300 -231c-48 0 -87.335 14.334 -118.002 43.001l36 38c25.333 -20.667 52.333 -31 81 -31c18.667 0 33.334 4.16699 44.001 12.5s16 19.166 16 32.499s-5.66699 23.833 -17 31.5s-26.666 11.5 -45.999 11.5h-34l26 93h-25v607h-246v93h597v-93h-246v-607h-27l-14 -51
c29.333 -2 52.5 -10.667 69.5 -26s25.5 -35 25.5 -59c0 -27.333 -11.667 -50 -35 -68s-52.333 -27 -87 -27z" />
    <glyph glyph-name="tcedilla" unicode="&#x163;" horiz-adv-x="389" 
d="M229 -231c-47.333 0 -86.667 14.332 -118 42.999l36 38c25.333 -20.667 52.333 -31 81 -31c19.333 0 34.333 4.16699 45 12.5s16 19.166 16 32.499s-5.66699 23.833 -17 31.5s-27 11.5 -47 11.5h-34l27 91c-62 16.667 -93 59.334 -93 128.001v299h-108v84h108v130l99 24
v-154h150v-84h-150v-276c0 -25.333 5.83301 -43.5 17.5 -54.5s30.834 -16.5 57.501 -16.5c14 0 26.5 0.833008 37.5 2.5s22.833 4.83398 35.5 9.50098v-85c-13.333 -4.66699 -28.833 -8 -46.5 -10s-33.834 -3 -48.501 -3h-4h-4l-13 -43c29.333 -2 52.5 -10.667 69.5 -26
s25.5 -35 25.5 -59c0 -27.333 -11.5 -50 -34.5 -68s-52.167 -27 -87.5 -27z" />
    <glyph glyph-name="Tcaron" unicode="&#x164;" horiz-adv-x="631" 
d="M263 0v607h-246v93h597v-93h-246v-607h-105zM237 918l79 -76l78 76h82l-109 -126h-104l-109 126h83z" />
    <glyph glyph-name="tcaron" unicode="&#x165;" horiz-adv-x="389" 
d="M297 585l5 190l92 18l-30 -208h-67zM277 -8c-49.333 0 -87 11.332 -113 33.999s-39 56 -39 100v299h-108v84h108v130l99 24v-154h150v-84h-150v-276c0 -25.333 5.83301 -43.5 17.5 -54.5s30.834 -16.5 57.501 -16.5c14 0 26.5 0.833008 37.5 2.5
s22.833 4.83398 35.5 9.50098v-85c-13.333 -4.66699 -28.833 -8 -46.5 -10s-33.834 -3 -48.501 -3z" />
    <glyph glyph-name="Tbar" unicode="&#x166;" horiz-adv-x="631" 
d="M263 0v295h-144v86h144v226h-246v93h597v-93h-246v-226h144v-86h-144v-295h-105z" />
    <glyph glyph-name="tbar" unicode="&#x167;" horiz-adv-x="389" 
d="M277 -9c-49.333 0 -87 11.5 -113 34.5s-39 56.5 -39 100.5v123h-108v75h108v101h-108v84h108v130l99 24v-154h150v-84h-150v-101h152v-75h-152v-100c0 -26 5.83301 -44.5 17.5 -55.5s30.834 -16.5 57.501 -16.5c14 0 26.5 1 37.5 3s22.833 5 35.5 9v-84
c-13.333 -4.66699 -28.833 -8.16699 -46.5 -10.5s-33.834 -3.5 -48.501 -3.5z" />
    <glyph glyph-name="Utilde" unicode="&#x168;" horiz-adv-x="713" 
d="M356 -11c-60.667 0 -113.333 12.667 -158 38s-79 61.166 -103 107.499s-36 101.166 -36 164.499v401h105v-401c0 -43.333 7.83301 -81 23.5 -113s38 -56.667 67 -74s62.833 -26 101.5 -26c40 0 74.333 8.66699 103 26s50.834 42 66.501 74s23.5 69.667 23.5 113v401h105
v-401c0 -63.333 -12.167 -118.166 -36.5 -164.499s-58.833 -82.166 -103.5 -107.499s-97.334 -38 -158.001 -38zM243.001 786l-66.001 13c16 72.667 50.333 109 103 109c18 0 35.667 -4.33301 53 -13s33.666 -17.5 48.999 -26.5s30 -13.5 44 -13.5
c11.333 0 20.333 4.16699 27 12.5s12.334 22.833 17.001 43.5l64 -13c-7.33301 -36.667 -19.666 -64 -36.999 -82s-39 -27 -65 -27c-17.333 0 -34.833 4.5 -52.5 13.5l-50 26.5c-15.667 8.66699 -30.167 13 -43.5 13c-12 0 -21.167 -4.33301 -27.5 -13s-11.5 -23 -15.5 -43z
" />
    <glyph glyph-name="utilde" unicode="&#x169;" horiz-adv-x="567" 
d="M256 -10c-39.333 0 -73.998 8.33398 -103.998 25.001s-53.333 40.167 -70 70.5s-25 65.166 -25 104.499v319h99v-302c0 -40 11.5 -71.667 34.5 -95s53.833 -35 92.5 -35c27.333 0 51.666 5.83301 72.999 17.5s38.666 28.167 51.999 49.5v365h100v-509h-100v52
c-39.333 -41.333 -90 -62 -152 -62zM170.002 596.001l-66.001 13c16 72.667 50.333 109 103 109c18 0 35.667 -4.33301 53 -13s33.666 -17.5 48.999 -26.5s30 -13.5 44 -13.5c11.333 0 20.333 4.16699 27 12.5s12.334 22.833 17.001 43.5l64 -13
c-7.33301 -36.667 -19.666 -64 -36.999 -82s-39 -27 -65 -27c-17.333 0 -34.833 4.5 -52.5 13.5l-50 26.5c-15.667 8.66699 -30.167 13 -43.5 13c-12 0 -21.167 -4.33301 -27.5 -13s-11.5 -23 -15.5 -43z" />
    <glyph glyph-name="Umacron" unicode="&#x16a;" horiz-adv-x="713" 
d="M356 -11c-60.667 0 -113.333 12.667 -158 38s-79 61.166 -103 107.499s-36 101.166 -36 164.499v401h105v-401c0 -43.333 7.83301 -81 23.5 -113s38 -56.667 67 -74s62.833 -26 101.5 -26c40 0 74.333 8.66699 103 26s50.834 42 66.501 74s23.5 69.667 23.5 113v401h105
v-401c0 -63.333 -12.167 -118.166 -36.5 -164.499s-58.833 -82.166 -103.5 -107.499s-97.334 -38 -158.001 -38zM207.001 813v67h298v-67h-298z" />
    <glyph glyph-name="umacron" unicode="&#x16b;" horiz-adv-x="567" 
d="M256 -10c-39.333 0 -73.998 8.33398 -103.998 25.001s-53.333 40.167 -70 70.5s-25 65.166 -25 104.499v319h99v-302c0 -40 11.5 -71.667 34.5 -95s53.833 -35 92.5 -35c27.333 0 51.666 5.83301 72.999 17.5s38.666 28.167 51.999 49.5v365h100v-509h-100v52
c-39.333 -41.333 -90 -62 -152 -62zM134.002 622.001v67h298v-67h-298z" />
    <glyph glyph-name="Ubreve" unicode="&#x16c;" horiz-adv-x="713" 
d="M356 -11c-60.667 0 -113.333 12.667 -158 38s-79 61.166 -103 107.499s-36 101.166 -36 164.499v401h105v-401c0 -43.333 7.83301 -81 23.5 -113s38 -56.667 67 -74s62.833 -26 101.5 -26c40 0 74.333 8.66699 103 26s50.834 42 66.501 74s23.5 69.667 23.5 113v401h105
v-401c0 -63.333 -12.167 -118.166 -36.5 -164.499s-58.833 -82.166 -103.5 -107.499s-97.334 -38 -158.001 -38zM356.001 786c-42 0 -77.333 11.333 -106 34s-47.667 54 -57 94l65 17c15.333 -56 48 -84 98 -84c24 0 44.333 7 61 21s29 35 37 63l65 -17
c-9.33301 -40 -28.333 -71.333 -57 -94s-64 -34 -106 -34z" />
    <glyph glyph-name="ubreve" unicode="&#x16d;" horiz-adv-x="567" 
d="M256 -10c-39.333 0 -73.998 8.33398 -103.998 25.001s-53.333 40.167 -70 70.5s-25 65.166 -25 104.499v319h99v-302c0 -40 11.5 -71.667 34.5 -95s53.833 -35 92.5 -35c27.333 0 51.666 5.83301 72.999 17.5s38.666 28.167 51.999 49.5v365h100v-509h-100v52
c-39.333 -41.333 -90 -62 -152 -62zM283.002 595.001c-42 0 -77.333 11.333 -106 34s-47.667 54 -57 94l65 17c15.333 -56 48 -84 98 -84c24 0 44.333 7 61 21s29 35 37 63l65 -17c-9.33301 -40 -28.333 -71.333 -57 -94s-64 -34 -106 -34z" />
    <glyph glyph-name="Uring" unicode="&#x16e;" horiz-adv-x="713" 
d="M356 -11c-60.667 0 -113.333 12.667 -158 38s-79 61.166 -103 107.499s-36 101.166 -36 164.499v401h105v-401c0 -43.333 7.83301 -81 23.5 -113s38 -56.667 67 -74s62.833 -26 101.5 -26c40 0 74.333 8.66699 103 26s50.834 42 66.501 74s23.5 69.667 23.5 113v401h105
v-401c0 -63.333 -12.167 -118.166 -36.5 -164.499s-58.833 -82.166 -103.5 -107.499s-97.334 -38 -158.001 -38zM356.001 775c-21.333 0 -40.833 5.16699 -58.5 15.5s-31.667 24.333 -42 42s-15.5 36.834 -15.5 57.501s5.16699 39.667 15.5 57s24.333 31.333 42 42
s37.167 16 58.5 16s40.833 -5.33301 58.5 -16s31.667 -24.667 42 -42s15.5 -36.333 15.5 -57s-5.16699 -39.834 -15.5 -57.501s-24.333 -31.667 -42 -42s-37.167 -15.5 -58.5 -15.5zM356.001 823c18.667 0 34.5 6.5 47.5 19.5s19.5 28.833 19.5 47.5s-6.5 34.5 -19.5 47.5
s-28.833 19.5 -47.5 19.5s-34.5 -6.5 -47.5 -19.5s-19.5 -28.833 -19.5 -47.5s6.5 -34.5 19.5 -47.5s28.833 -19.5 47.5 -19.5z" />
    <glyph glyph-name="uring" unicode="&#x16f;" horiz-adv-x="567" 
d="M256 -10c-39.333 0 -73.998 8.33398 -103.998 25.001s-53.333 40.167 -70 70.5s-25 65.166 -25 104.499v319h99v-302c0 -40 11.5 -71.667 34.5 -95s53.833 -35 92.5 -35c27.333 0 51.666 5.83301 72.999 17.5s38.666 28.167 51.999 49.5v365h100v-509h-100v52
c-39.333 -41.333 -90 -62 -152 -62zM283.002 584.001c-21.333 0 -40.833 5.16699 -58.5 15.5s-31.667 24.333 -42 42s-15.5 36.834 -15.5 57.501s5.16699 39.667 15.5 57s24.333 31.333 42 42s37.167 16 58.5 16s40.833 -5.33301 58.5 -16s31.667 -24.667 42 -42
s15.5 -36.333 15.5 -57s-5.16699 -39.834 -15.5 -57.501s-24.333 -31.667 -42 -42s-37.167 -15.5 -58.5 -15.5zM283.002 632.001c18.667 0 34.5 6.5 47.5 19.5s19.5 28.833 19.5 47.5s-6.5 34.5 -19.5 47.5s-28.833 19.5 -47.5 19.5s-34.5 -6.5 -47.5 -19.5
s-19.5 -28.833 -19.5 -47.5s6.5 -34.5 19.5 -47.5s28.833 -19.5 47.5 -19.5z" />
    <glyph glyph-name="Uhungarumlaut" unicode="&#x170;" horiz-adv-x="713" 
d="M356 -11c-60.667 0 -113.333 12.667 -158 38s-79 61.166 -103 107.499s-36 101.166 -36 164.499v401h105v-401c0 -43.333 7.83301 -81 23.5 -113s38 -56.667 67 -74s62.833 -26 101.5 -26c40 0 74.333 8.66699 103 26s50.834 42 66.501 74s23.5 69.667 23.5 113v401h105
v-401c0 -63.333 -12.167 -118.166 -36.5 -164.499s-58.833 -82.166 -103.5 -107.499s-97.334 -38 -158.001 -38zM218.001 797l103 119h107l-130 -119h-80zM400.001 797l103 119h108l-135 -119h-76z" />
    <glyph glyph-name="uhungarumlaut" unicode="&#x171;" horiz-adv-x="567" 
d="M256 -10c-39.333 0 -73.998 8.33398 -103.998 25.001s-53.333 40.167 -70 70.5s-25 65.166 -25 104.499v319h99v-302c0 -40 11.5 -71.667 34.5 -95s53.833 -35 92.5 -35c27.333 0 51.666 5.83301 72.999 17.5s38.666 28.167 51.999 49.5v365h100v-509h-100v52
c-39.333 -41.333 -90 -62 -152 -62zM145.002 606.001l103 119h107l-130 -119h-80zM327.002 606.001l103 119h108l-135 -119h-76z" />
    <glyph glyph-name="Uogonek" unicode="&#x172;" horiz-adv-x="713" 
d="M377 -221c-30 0 -54.3311 7.99902 -72.998 23.999s-28 37.333 -28 64c0 22 6.5 42.667 19.5 62s33.833 39.333 62.5 60c-60.667 0.666992 -113.334 13.5 -158.001 38.5s-79.334 60.5 -104.001 106.5s-37 101 -37 165v401h105v-401c0 -43.333 7.83301 -81 23.5 -113
s38 -56.667 67 -74s62.833 -26 101.5 -26c40 0 74.333 8.66699 103 26s50.834 42 66.501 74s23.5 69.667 23.5 113v401h105v-401c0 -80 -19.5 -146.5 -58.5 -199.5s-92.5 -87.167 -160.5 -102.5c-32.667 -20.667 -56.834 -40 -72.501 -58s-23.5 -36.333 -23.5 -55
c0 -15.333 4.83301 -27.166 14.5 -35.499s23.167 -12.5 40.5 -12.5c8 0 15.833 1 23.5 3s14.5 5.33301 20.5 10l17 -48c-10.667 -6.66699 -22.667 -12 -36 -16s-27.333 -6 -42 -6z" />
    <glyph glyph-name="uogonek" unicode="&#x173;" horiz-adv-x="567" 
d="M448 -221c-30 0 -54.3301 7.99902 -72.9971 23.999s-28 37.333 -28 64c0 24 7.66699 46.5 23 67.5s39.666 42.833 72.999 65.5h-35v52c-39.333 -41.333 -90 -62 -152 -62c-39.333 0 -74 8.33301 -104 25s-53.333 40 -70 70s-25 65 -25 105v319h99v-302
c0 -40 11.5 -71.667 34.5 -95s53.833 -35 92.5 -35c27.333 0 51.666 5.83301 72.999 17.5s38.666 28.167 51.999 49.5v365h100v-509c-34 -20.667 -58.833 -40.5 -74.5 -59.5s-23.5 -37.833 -23.5 -56.5c0 -15.333 4.66699 -27.166 14 -35.499s23 -12.5 41 -12.5
c7.33301 0 15 1 23 3s15 5.33301 21 10l17 -48c-10.667 -6.66699 -22.667 -12 -36 -16s-27.333 -6 -42 -6z" />
    <glyph glyph-name="Wcircumflex" unicode="&#x174;" horiz-adv-x="908" 
d="M184 0l-153 700h108l109 -535l158 535h100l158 -534l110 534h103l-153 -700h-108l-161 550l-162 -550h-109zM531 791l-80 77l-79 -77h-81l109 127h104l109 -127h-82z" />
    <glyph glyph-name="wcircumflex" unicode="&#x175;" horiz-adv-x="731" 
d="M154 0l-142 509h97l99 -374l116 374h86l116 -374l99 374h94l-143 -509h-96l-114 373l-115 -373h-97zM445 600l-80 77l-79 -77h-81l109 127h104l109 -127h-82z" />
    <glyph glyph-name="Ycircumflex" unicode="&#x176;" horiz-adv-x="666" 
d="M281 0v278l-282 422h122l215 -329l215 329h117l-282 -424v-276h-105zM413 791l-80 77l-79 -77h-81l109 127h104l109 -127h-82z" />
    <glyph glyph-name="ycircumflex" unicode="&#x177;" horiz-adv-x="537" 
d="M93 -215c-10.667 0 -20.6689 0.499023 -30.002 1.49902s-17 2.5 -23 4.5v88c12 -2.66699 26.667 -4 44 -4c46.667 0 80.334 25 101.001 75l22 49l-204 510h111l148 -388l164 388h108l-246 -572c-16 -36 -33 -65.167 -51 -87.5s-38.667 -38.666 -62 -48.999
s-50.666 -15.5 -81.999 -15.5zM343.998 599.999l-80 77l-79 -77h-81l109 127h104l109 -127h-82z" />
    <glyph glyph-name="Ydieresis" unicode="&#x178;" horiz-adv-x="666" 
d="M281 0v278l-282 422h122l215 -329l215 329h117l-282 -424v-276h-105zM237 799c-16.667 0 -30.667 5.5 -42 16.5s-17 24.833 -17 41.5s5.66699 30.5 17 41.5s25.333 16.5 42 16.5s30.667 -5.5 42 -16.5s17 -24.833 17 -41.5c0 -16 -5.66699 -29.667 -17 -41
s-25.333 -17 -42 -17zM431 799c-16.667 0 -30.667 5.5 -42 16.5s-17 24.833 -17 41.5s5.66699 30.5 17 41.5s25.333 16.5 42 16.5s30.667 -5.5 42 -16.5s17 -24.833 17 -41.5c0 -16 -5.66699 -29.667 -17 -41s-25.333 -17 -42 -17z" />
    <glyph glyph-name="Zacute" unicode="&#x179;" horiz-adv-x="609" 
d="M23 0v73l420 535h-416v92h554v-73l-422 -535h428v-92h-564zM241 794l92 122h121l-129 -122h-84z" />
    <glyph glyph-name="zacute" unicode="&#x17a;" horiz-adv-x="478" 
d="M29 0v74l286 349h-283v86h408v-73l-286 -350h291v-86h-416zM164 603l92 122h121l-129 -122h-84z" />
    <glyph glyph-name="Zdotaccent" unicode="&#x17b;" horiz-adv-x="609" 
d="M23 0v73l420 535h-416v92h554v-73l-422 -535h428v-92h-564zM312 793c-16.667 0 -30.834 5.66699 -42.501 17s-17.5 25.333 -17.5 42c0 16 5.83301 29.667 17.5 41s25.834 17 42.501 17s30.834 -5.66699 42.501 -17s17.5 -25 17.5 -41
c0 -16.667 -5.83301 -30.667 -17.5 -42s-25.834 -17 -42.501 -17z" />
    <glyph glyph-name="zdotaccent" unicode="&#x17c;" horiz-adv-x="478" 
d="M29 0v74l286 349h-283v86h408v-73l-286 -350h291v-86h-416zM235 602c-16.667 0 -30.834 5.66699 -42.501 17s-17.5 25.333 -17.5 42c0 16 5.83301 29.667 17.5 41s25.834 17 42.501 17s30.834 -5.66699 42.501 -17s17.5 -25 17.5 -41
c0 -16.667 -5.83301 -30.667 -17.5 -42s-25.834 -17 -42.501 -17z" />
    <glyph glyph-name="Zcaron" unicode="&#x17d;" horiz-adv-x="609" 
d="M23 0v73l420 535h-416v92h554v-73l-422 -535h428v-92h-564zM234 918l79 -76l78 76h82l-109 -126h-104l-109 126h83z" />
    <glyph glyph-name="zcaron" unicode="&#x17e;" horiz-adv-x="478" 
d="M29 0v74l286 349h-283v86h408v-73l-286 -350h291v-86h-416zM157 727l79 -76l78 76h82l-109 -126h-104l-109 126h83z" />
    <glyph glyph-name="Scommaaccent" unicode="&#x218;" horiz-adv-x="613" 
d="M308 -10c-56 0 -109.999 11.001 -161.999 33.001s-98 53 -138 93l64 74c38 -37.333 76.833 -65 116.5 -83s81.167 -27 124.5 -27c34 0 63.833 4.83301 89.5 14.5s45.5 23.5 59.5 41.5s21 38.333 21 61c0 31.333 -11 55.333 -33 72s-58.333 29.334 -109 38.001l-117 19
c-64 11.333 -111.833 32 -143.5 62s-47.5 70 -47.5 120c0 40 10.667 75.167 32 105.5s51.5 53.833 90.5 70.5s84.167 25 135.5 25c50.667 0 100.5 -8.16699 149.5 -24.5s93.167 -39.833 132.5 -70.5l-58 -80c-75.333 57.333 -151.666 86 -228.999 86
c-30.667 0 -57.334 -4.33301 -80.001 -13s-40.334 -20.834 -53.001 -36.501s-19 -33.834 -19 -54.501c0 -28.667 9.66699 -50.5 29 -65.5s51.333 -25.833 96 -32.5l113 -19c74 -12 128.333 -33.667 163 -65s52 -74.333 52 -129c0 -42.667 -11.667 -80.167 -35 -112.5
s-56 -57.5 -98 -75.5s-90.667 -27 -146 -27zM203.001 -271.999l46 189h96l-68 -189h-74z" />
    <glyph glyph-name="scommaaccent" unicode="&#x219;" horiz-adv-x="465" 
d="M234 -10c-44 0 -85.167 6.49902 -123.5 19.499s-71.5 31.5 -99.5 55.5l55 66c26 -20.667 52.833 -36.5 80.5 -47.5s55.834 -16.5 84.501 -16.5c36 0 65.333 7 88 21s34 32.333 34 55c0 18.667 -6.66699 33.334 -20 44.001s-34 18 -62 22l-92 13
c-50.667 7.33301 -88.667 23 -114 47s-38 56 -38 96c0 30.667 8.33301 57.5 25 80.5s40 41 70 54s65 19.5 105 19.5c36.667 0 72 -5.33301 106 -16s66.667 -27.334 98 -50.001l-51 -66c-28 18.667 -55.167 32.334 -81.5 41.001s-52.833 13 -79.5 13
c-30.667 0 -55.334 -6.5 -74.001 -19.5s-28 -29.833 -28 -50.5c0 -18.667 6.5 -33.167 19.5 -43.5s34.5 -17.5 64.5 -21.5l92 -13c50.667 -7.33301 89 -22.833 115 -46.5s39 -55.5 39 -95.5c0 -30.667 -9.33301 -58.167 -28 -82.5s-44 -43.5 -76 -57.5s-68.333 -21 -109 -21
zM141 -273.001l46 189h96l-68 -189h-74z" />
    <glyph glyph-name="uni021A" unicode="&#x21a;" horiz-adv-x="631" 
d="M263 0v607h-246v93h597v-93h-246v-607h-105zM222 -273l46 189h96l-68 -189h-74z" />
    <glyph glyph-name="uni021B" unicode="&#x21b;" horiz-adv-x="389" 
d="M277 -9c-49.333 0 -87 11.5 -113 34.5s-39 56.5 -39 100.5v299h-108v84h108v130l99 24v-154h150v-84h-150v-276c0 -26 5.83301 -44.5 17.5 -55.5s30.834 -16.5 57.501 -16.5c14 0 26.5 1 37.5 3s22.833 5 35.5 9v-84c-13.333 -4.66699 -28.833 -8.16699 -46.5 -10.5
s-33.834 -3.5 -48.501 -3.5zM148 -273l46 189h96l-68 -189h-74z" />
    <glyph glyph-name="dotlessj" unicode="&#x237;" horiz-adv-x="218" 
d="M15 -214c-10.667 0 -21 0.833008 -31 2.5l-27 4.5v80c12 -2.66699 25.667 -4 41 -4c22 0 37.667 4.83301 47 14.5s14 25.5 14 47.5v578h100v-586c0 -43.333 -12.5 -77 -37.5 -101s-60.5 -36 -106.5 -36z" />
    <glyph glyph-name="uni02BB" unicode="&#x2bb;" horiz-adv-x="250" 
d="M215 728l-62 -233h-106l92 233h76z" />
    <glyph glyph-name="uni02BC" unicode="&#x2bc;" horiz-adv-x="250" 
d="M45 496l62 233h106l-92 -233h-76z" />
    <glyph glyph-name="circumflex" unicode="&#x2c6;" 
d="M379 600l-80 77l-79 -77h-81l109 127h104l109 -127h-82z" />
    <glyph glyph-name="caron" unicode="&#x2c7;" 
d="M222 727l79 -76l78 76h82l-109 -126h-104l-109 126h83z" />
    <glyph glyph-name="breve" unicode="&#x2d8;" 
d="M300 595c-42 0 -77.333 11.333 -106 34s-47.667 54 -57 94l65 17c15.333 -56 48 -84 98 -84c24 0 44.333 7 61 21s29 35 37 63l65 -17c-9.33301 -40 -28.333 -71.333 -57 -94s-64 -34 -106 -34z" />
    <glyph glyph-name="dotaccent" unicode="&#x2d9;" 
d="M300 602c-16.667 0 -30.834 5.66699 -42.501 17s-17.5 25.333 -17.5 42c0 16 5.83301 29.667 17.5 41s25.834 17 42.501 17s30.834 -5.66699 42.501 -17s17.5 -25 17.5 -41c0 -16.667 -5.83301 -30.667 -17.5 -42s-25.834 -17 -42.501 -17z" />
    <glyph glyph-name="ring" unicode="&#x2da;" 
d="M300 584c-21.333 0 -40.833 5.16699 -58.5 15.5s-31.667 24.333 -42 42s-15.5 36.834 -15.5 57.501s5.16699 39.667 15.5 57s24.333 31.333 42 42s37.167 16 58.5 16s40.833 -5.33301 58.5 -16s31.667 -24.667 42 -42s15.5 -36.333 15.5 -57
s-5.16699 -39.834 -15.5 -57.501s-24.333 -31.667 -42 -42s-37.167 -15.5 -58.5 -15.5zM300 632c18.667 0 34.5 6.5 47.5 19.5s19.5 28.833 19.5 47.5s-6.5 34.5 -19.5 47.5s-28.833 19.5 -47.5 19.5s-34.5 -6.5 -47.5 -19.5s-19.5 -28.833 -19.5 -47.5
s6.5 -34.5 19.5 -47.5s28.833 -19.5 47.5 -19.5z" />
    <glyph glyph-name="ogonek" unicode="&#x2db;" 
d="M297 -221c-30.667 0 -55.167 8 -73.5 24s-27.5 37.333 -27.5 64c0 27.333 9.83301 52.666 29.5 75.999s51.167 48.333 94.5 75l38 -18c-34 -20.667 -59 -40.5 -75 -59.5s-24 -37.833 -24 -56.5c0 -15.333 4.66699 -27.166 14 -35.499s23 -12.5 41 -12.5
c7.33301 0 15 1 23 3s15 5.33301 21 10l17 -48c-11.333 -6.66699 -23.5 -12 -36.5 -16s-26.833 -6 -41.5 -6z" />
    <glyph glyph-name="tilde" unicode="&#x2dc;" 
d="M187 595l-66.001 13c16 72.667 50.333 109 103 109c18 0 35.667 -4.33301 53 -13s33.666 -17.5 48.999 -26.5s30 -13.5 44 -13.5c11.333 0 20.333 4.16699 27 12.5s12.334 22.833 17.001 43.5l64 -13c-7.33301 -36.667 -19.666 -64 -36.999 -82s-39 -27 -65 -27
c-17.333 0 -34.833 4.5 -52.5 13.5l-50 26.5c-15.667 8.66699 -30.167 13 -43.5 13c-12 0 -21.167 -4.33301 -27.5 -13s-11.5 -23 -15.5 -43z" />
    <glyph glyph-name="hungarumlaut" unicode="&#x2dd;" 
d="M162 606l103 119h107l-130 -119h-80zM344 606l103 119h108l-135 -119h-76z" />
    <glyph glyph-name="uni0327" unicode="&#x327;" horiz-adv-x="0" 
d="M290 -231c-47.333 0 -86.667 14.334 -118 43.001l36 38c25.333 -20.667 52.333 -31 81 -31c19.333 0 34.333 4.16699 45 12.5s16 19.166 16 32.499s-5.66699 23.833 -17 31.5s-27 11.5 -47 11.5h-34l27 93h53l-15 -51c29.333 -2 52.5 -10.667 69.5 -26s25.5 -35 25.5 -59
c0 -27.333 -11.5 -50 -34.5 -68s-52.167 -27 -87.5 -27z" />
    <glyph glyph-name="uni0328" unicode="&#x328;" horiz-adv-x="0" 
d="M297 -221c-30.667 0 -55.167 8 -73.5 24s-27.5 37.333 -27.5 64c0 27.333 9.83301 52.666 29.5 75.999s51.167 48.333 94.5 75l38 -18c-34 -20.667 -59 -40.5 -75 -59.5s-24 -37.833 -24 -56.5c0 -15.333 4.66699 -27.166 14 -35.499s23 -12.5 41 -12.5
c7.33301 0 15 1 23 3s15 5.33301 21 10l17 -48c-11.333 -6.66699 -23.5 -12 -36.5 -16s-26.833 -6 -41.5 -6z" />
    <glyph glyph-name="Wgrave" unicode="&#x1e80;" horiz-adv-x="908" 
d="M184 0l-153 700h108l109 -535l158 535h100l158 -534l110 534h103l-153 -700h-108l-161 550l-162 -550h-109zM429 794l-128 122h122l90 -122h-84z" />
    <glyph glyph-name="wgrave" unicode="&#x1e81;" horiz-adv-x="731" 
d="M154 0l-142 509h97l99 -374l116 374h86l116 -374l99 374h94l-143 -509h-96l-114 373l-115 -373h-97zM343 603l-128 122h122l90 -122h-84z" />
    <glyph glyph-name="Wacute" unicode="&#x1e82;" horiz-adv-x="908" 
d="M184 0l-153 700h108l109 -535l158 535h100l158 -534l110 534h103l-153 -700h-108l-161 550l-162 -550h-109zM381 794l92 122h121l-129 -122h-84z" />
    <glyph glyph-name="wacute" unicode="&#x1e83;" horiz-adv-x="731" 
d="M154 0l-142 509h97l99 -374l116 374h86l116 -374l99 374h94l-143 -509h-96l-114 373l-115 -373h-97zM295 603l92 122h121l-129 -122h-84z" />
    <glyph glyph-name="Wdieresis" unicode="&#x1e84;" horiz-adv-x="908" 
d="M184 0l-153 700h108l109 -535l158 535h100l158 -534l110 534h103l-153 -700h-108l-161 550l-162 -550h-109zM355 799c-16.667 0 -30.667 5.5 -42 16.5s-17 24.833 -17 41.5s5.66699 30.5 17 41.5s25.333 16.5 42 16.5s30.667 -5.5 42 -16.5s17 -24.833 17 -41.5
c0 -16 -5.66699 -29.667 -17 -41s-25.333 -17 -42 -17zM549 799c-16.667 0 -30.667 5.5 -42 16.5s-17 24.833 -17 41.5s5.66699 30.5 17 41.5s25.333 16.5 42 16.5s30.667 -5.5 42 -16.5s17 -24.833 17 -41.5c0 -16 -5.66699 -29.667 -17 -41s-25.333 -17 -42 -17z" />
    <glyph glyph-name="wdieresis" unicode="&#x1e85;" horiz-adv-x="731" 
d="M154 0l-142 509h97l99 -374l116 374h86l116 -374l99 374h94l-143 -509h-96l-114 373l-115 -373h-97zM269 608c-16.667 0 -30.667 5.5 -42 16.5s-17 24.833 -17 41.5s5.66699 30.5 17 41.5s25.333 16.5 42 16.5s30.667 -5.5 42 -16.5s17 -24.833 17 -41.5
c0 -16 -5.66699 -29.667 -17 -41s-25.333 -17 -42 -17zM463 608c-16.667 0 -30.667 5.5 -42 16.5s-17 24.833 -17 41.5s5.66699 30.5 17 41.5s25.333 16.5 42 16.5s30.667 -5.5 42 -16.5s17 -24.833 17 -41.5c0 -16 -5.66699 -29.667 -17 -41s-25.333 -17 -42 -17z" />
    <glyph glyph-name="Ygrave" unicode="&#x1ef2;" horiz-adv-x="666" 
d="M281 0v278l-282 422h122l215 -329l215 329h117l-282 -424v-276h-105zM311 794l-128 122h122l90 -122h-84z" />
    <glyph glyph-name="ygrave" unicode="&#x1ef3;" horiz-adv-x="537" 
d="M93 -215c-10.667 0 -20.6689 0.499023 -30.002 1.49902s-17 2.5 -23 4.5v88c12 -2.66699 26.667 -4 44 -4c46.667 0 80.334 25 101.001 75l22 49l-204 510h111l148 -388l164 388h108l-246 -572c-16 -36 -33 -65.167 -51 -87.5s-38.667 -38.666 -62 -48.999
s-50.666 -15.5 -81.999 -15.5zM241.998 602.999l-128 122h122l90 -122h-84z" />
    <glyph glyph-name="enspace" unicode="&#x2002;" horiz-adv-x="500" 
 />
    <glyph glyph-name="emspace" unicode="&#x2003;" horiz-adv-x="1000" 
 />
    <glyph glyph-name="thinspace" unicode="&#x2009;" horiz-adv-x="175" 
 />
    <glyph glyph-name="hairspace" unicode="&#x200a;" horiz-adv-x="100" 
 />
    <glyph glyph-name="zerowidthspace" unicode="&#x200b;" horiz-adv-x="0" 
 />
    <glyph glyph-name="endash" unicode="&#x2013;" horiz-adv-x="552" 
d="M46 239v87h460v-87h-460z" />
    <glyph glyph-name="emdash" unicode="&#x2014;" horiz-adv-x="702" 
d="M46 239v87h610v-87h-610z" />
    <glyph glyph-name="uni2015" unicode="&#x2015;" horiz-adv-x="952" 
d="M46 239v87h860v-87h-860z" />
    <glyph glyph-name="quoteleft" unicode="&#x2018;" horiz-adv-x="250" 
d="M215 728l-62 -233h-106l92 233h76z" />
    <glyph glyph-name="quoteright" unicode="&#x2019;" horiz-adv-x="250" 
d="M45 496l62 233h106l-92 -233h-76z" />
    <glyph glyph-name="quotesinglbase" unicode="&#x201a;" horiz-adv-x="250" 
d="M27 -143l62 233h106l-92 -233h-76z" />
    <glyph glyph-name="quotedblleft" unicode="&#x201c;" horiz-adv-x="409" 
d="M215 728l-62 -233h-106l92 233h76zM374 728l-62 -233h-106l92 233h76z" />
    <glyph glyph-name="quotedblright" unicode="&#x201d;" horiz-adv-x="409" 
d="M204 496l62 233h106l-92 -233h-76zM45 496l62 233h106l-92 -233h-76z" />
    <glyph glyph-name="quotedblbase" unicode="&#x201e;" horiz-adv-x="409" 
d="M186 -143l62 233h106l-92 -233h-76zM27 -143l62 233h106l-92 -233h-76z" />
    <glyph glyph-name="dagger" unicode="&#x2020;" horiz-adv-x="435" 
d="M176 0v430h-124v79h124v191h84v-191h124v-79h-124v-430h-84z" />
    <glyph glyph-name="daggerdbl" unicode="&#x2021;" horiz-adv-x="435" 
d="M176 0v191h-124v79h124v160h-124v79h124v191h84v-191h124v-79h-124v-160h124v-79h-124v-191h-84z" />
    <glyph glyph-name="bullet" unicode="&#x2022;" horiz-adv-x="339" 
d="M169 237c-19.333 0 -37.333 4.83301 -54 14.5s-29.667 22.5 -39 38.5s-14 33.667 -14 53c0 20 4.66699 38.167 14 54.5s22.333 29.333 39 39s34.667 14.5 54 14.5c20 0 38.167 -4.83301 54.5 -14.5s29.333 -22.667 39 -39s14.5 -34.5 14.5 -54.5
c0 -19.333 -4.83301 -37 -14.5 -53s-22.667 -28.833 -39 -38.5s-34.5 -14.5 -54.5 -14.5z" />
    <glyph glyph-name="ellipsis" unicode="&#x2026;" horiz-adv-x="667" 
d="M125 -7c-17.333 0 -32.166 6.16699 -44.499 18.5s-18.5 27.166 -18.5 44.499s6.16699 32.166 18.5 44.499s27.166 18.5 44.499 18.5s32.166 -6.16699 44.499 -18.5s18.5 -27.166 18.5 -44.499s-6.16699 -32.166 -18.5 -44.499s-27.166 -18.5 -44.499 -18.5zM334 -7
c-17.333 0 -32.166 6.16699 -44.499 18.5s-18.5 27.166 -18.5 44.499s6.16699 32.166 18.5 44.499s27.166 18.5 44.499 18.5s32.166 -6.16699 44.499 -18.5s18.5 -27.166 18.5 -44.499s-6.16699 -32.166 -18.5 -44.499s-27.166 -18.5 -44.499 -18.5zM542 -7
c-17.333 0 -32.166 6.16699 -44.499 18.5s-18.5 27.166 -18.5 44.499s6.16699 32.166 18.5 44.499s27.166 18.5 44.499 18.5s32.166 -6.16699 44.499 -18.5s18.5 -27.166 18.5 -44.499s-6.16699 -32.166 -18.5 -44.499s-27.166 -18.5 -44.499 -18.5z" />
    <glyph glyph-name="perthousand" unicode="&#x2030;" horiz-adv-x="1110" 
d="M178 345c-46 0 -83 16.667 -111 50s-42 76.666 -42 129.999c0 54 14 97.5 42 130.5s65 49.5 111 49.5c45.333 0 82 -16.5 110 -49.5s42.333 -76.5 43 -130.5c-0.666992 -53.333 -15 -96.666 -43 -129.999s-64.667 -50 -110 -50zM178 402c27.333 0 49 11.167 65 33.5
s24 52.166 24 89.499c0 38 -8 68.167 -24 90.5s-37.667 33.5 -65 33.5s-48.833 -11.167 -64.5 -33.5s-23.834 -52.5 -24.501 -90.5c0.666992 -37.333 8.83398 -67.166 24.501 -89.499s37.167 -33.5 64.5 -33.5zM142 0l394 700h79l-395 -700h-78zM585 -5
c-46 0 -83 16.667 -111 50s-42 76.666 -42 129.999c0 54 14 97.5 42 130.5s65 49.5 111 49.5c45.333 0 82 -16.5 110 -49.5s42.333 -76.5 43 -130.5c-0.666992 -53.333 -15 -96.666 -43 -129.999s-64.667 -50 -110 -50zM585 52c27.333 0 49 11.167 65 33.5
s24 52.166 24 89.499c0 38 -8 68.167 -24 90.5s-37.667 33.5 -65 33.5s-48.833 -11.167 -64.5 -33.5s-23.834 -52.5 -24.501 -90.5c0.666992 -37.333 8.83398 -67.166 24.501 -89.499s37.167 -33.5 64.5 -33.5zM933 -5c-46 0 -83 16.667 -111 50s-42 76.666 -42 129.999
c0 54 14 97.5 42 130.5s65 49.5 111 49.5c45.333 0 82 -16.5 110 -49.5s42.333 -76.5 43 -130.5c-0.666992 -53.333 -15 -96.666 -43 -129.999s-64.667 -50 -110 -50zM933 52c27.333 0 49 11.167 65 33.5s24 52.166 24 89.499c0 38 -8 68.167 -24 90.5
s-37.667 33.5 -65 33.5s-48.833 -11.167 -64.5 -33.5s-23.834 -52.5 -24.501 -90.5c0.666992 -37.333 8.83398 -67.166 24.501 -89.499s37.167 -33.5 64.5 -33.5z" />
    <glyph glyph-name="uni2032" unicode="&#x2032;" horiz-adv-x="250" 
d="M45 496l62 233h106l-92 -233h-76z" />
    <glyph glyph-name="uni2033" unicode="&#x2033;" horiz-adv-x="409" 
d="M204 496l62 233h106l-92 -233h-76zM45 496l62 233h106l-92 -233h-76z" />
    <glyph glyph-name="guilsinglleft" unicode="&#x2039;" horiz-adv-x="406" 
d="M264 0l-238 255l238 254h104l-232 -252l235 -257h-107z" />
    <glyph glyph-name="guilsinglright" unicode="&#x203a;" horiz-adv-x="406" 
d="M142 509l238 -255l-238 -254h-104l232 252l-235 257h107z" />
    <glyph glyph-name="fraction" unicode="&#x2044;" horiz-adv-x="578" 
d="M25 0l394 700h79l-395 -700h-78z" />
    <glyph glyph-name="uni2070" unicode="&#x2070;" horiz-adv-x="355" 
d="M178 345c-46 0 -83 16.667 -111 50s-42 76.666 -42 129.999c0 54 14 97.5 42 130.5s65 49.5 111 49.5c45.333 0 82 -16.5 110 -49.5s42.333 -76.5 43 -130.5c-0.666992 -53.333 -15 -96.666 -43 -129.999s-64.667 -50 -110 -50zM178 402c27.333 0 49 11.167 65 33.5
s24 52.166 24 89.499c0 38 -8 68.167 -24 90.5s-37.667 33.5 -65 33.5s-48.833 -11.167 -64.5 -33.5s-23.834 -52.5 -24.501 -90.5c0.666992 -37.333 8.83398 -67.166 24.501 -89.499s37.167 -33.5 64.5 -33.5z" />
    <glyph glyph-name="uni2074" unicode="&#x2074;" horiz-adv-x="341" 
d="M218 350v83h-197v53l188 214h75v-212h43v-55h-43v-83h-66zM96 488h122v139z" />
    <glyph glyph-name="uni2075" unicode="&#x2075;" horiz-adv-x="315" 
d="M150 345c-51.333 0 -94.6689 15.668 -130.002 47.001l40 45c14.667 -13.333 29.334 -22.833 44.001 -28.5s30.667 -8.5 48 -8.5c22 0 39.667 5.66699 53 17s20 25.666 20 42.999s-7.16699 31.5 -21.5 42.5s-32.833 16.5 -55.5 16.5c-10 0 -20.833 -1 -32.5 -3
s-23.167 -5.33301 -34.5 -10l-42 13l9 181h224v-56h-172l-3 -84c10.667 4 21.334 6.83301 32.001 8.5s21.667 2.5 33 2.5c39.333 0 70.833 -10 94.5 -30s35.5 -46.667 35.5 -80c0 -34.667 -13.167 -62.667 -39.5 -84s-60.5 -32 -102.5 -32z" />
    <glyph glyph-name="uni2076" unicode="&#x2076;" horiz-adv-x="331" 
d="M178 345c-46 0 -83.167 15.833 -111.5 47.5s-42.5 73.167 -42.5 124.5c0 56.667 15.833 102.167 47.5 136.5s73.834 51.5 126.501 51.5c17.333 0 35.166 -3 53.499 -9s33.833 -14 46.5 -24l-37 -47c-10 8 -20.833 13.667 -32.5 17s-23.834 5 -36.501 5
c-31.333 0 -55.666 -10.333 -72.999 -31s-27 -50.667 -29 -90c12 13.333 26.5 23.666 43.5 30.999s34.5 11 52.5 11c36 0 65.333 -10.167 88 -30.5s34 -46.166 34 -77.499c0 -32.667 -12.333 -60 -37 -82s-55.667 -33 -93 -33zM175 517
c-15.333 0 -29.998 -3.5 -43.998 -10.5s-26.333 -16.833 -37 -29.5c5.33301 -23.333 15.166 -41.833 29.499 -55.5s31.833 -20.5 52.5 -20.5c19.333 0 35.5 5.5 48.5 16.5s19.5 24.833 19.5 41.5c0 17.333 -6.33301 31.333 -19 42s-29.334 16 -50.001 16z" />
    <glyph glyph-name="uni2077" unicode="&#x2077;" horiz-adv-x="307" 
d="M58 350l163 294h-204v56h279v-48l-160 -302h-78z" />
    <glyph glyph-name="uni2078" unicode="&#x2078;" horiz-adv-x="331" 
d="M166 345c-41.333 0 -75 9.5 -101 28.5s-39 43.5 -39 73.5c0 18.667 5.66699 35.5 17 50.5s26.666 26.167 45.999 33.5c-15.333 7.33301 -27.666 18 -36.999 32s-14 29 -14 45c0 28 12.167 51.333 36.5 70s54.5 28 90.5 28c36.667 0 67.167 -9.33301 91.5 -28
s36.5 -42 36.5 -70c0 -16 -4.66699 -31 -14 -45s-21.666 -24.667 -36.999 -32c18.667 -7.33301 33.667 -18.5 45 -33.5s17 -31.833 17 -50.5c0 -30 -12.833 -54.5 -38.5 -73.5s-58.834 -28.5 -99.501 -28.5zM166 555c17.333 0 32 4.66699 44 14s18 21 18 35
s-5.83301 25.667 -17.5 35s-26.5 14 -44.5 14c-18.667 0 -34 -4.66699 -46 -14s-18 -21 -18 -35s6 -25.667 18 -35s27.333 -14 46 -14zM166 399c20.667 0 38 5 52 15s21 22.333 21 37c0 16 -7 29 -21 39s-31.333 15 -52 15c-22 0 -39.833 -5 -53.5 -15s-20.5 -23 -20.5 -39
c0 -14.667 6.83301 -27 20.5 -37s31.5 -15 53.5 -15z" />
    <glyph glyph-name="uni2079" unicode="&#x2079;" horiz-adv-x="331" 
d="M153 705c46 0 83.168 -15.998 111.501 -47.998s42.5 -73.667 42.5 -125c0 -56 -15.833 -101.167 -47.5 -135.5s-73.834 -51.5 -126.501 -51.5c-17.333 0 -35.166 3 -53.499 9s-33.833 13.667 -46.5 23l37 48c10 -8 20.833 -13.833 32.5 -17.5s23.834 -5.5 36.501 -5.5
c31.333 0 55.666 10.5 72.999 31.5s27 50.833 29 89.5c-12 -12.667 -26.333 -22.834 -43 -30.501s-34.334 -11.5 -53.001 -11.5c-36 0 -65.333 10.167 -88 30.5s-34 46.166 -34 77.499c0 33.333 12.333 61 37 83s55.667 33 93 33zM156.001 533.002
c16 0 30.8301 3.33301 44.4971 10s25.834 16.667 36.501 30c-5.33301 23.333 -15.166 41.833 -29.499 55.5s-31.833 20.5 -52.5 20.5c-19.333 0 -35.5 -5.5 -48.5 -16.5s-19.5 -24.833 -19.5 -41.5c0 -17.333 6.33301 -31.333 19 -42s29.334 -16 50.001 -16z" />
    <glyph glyph-name="uni2080" unicode="&#x2080;" horiz-adv-x="355" 
d="M178 -5c-46 0 -83 16.667 -111 50s-42 76.666 -42 129.999c0 54 14 97.5 42 130.5s65 49.5 111 49.5c45.333 0 82 -16.5 110 -49.5s42.333 -76.5 43 -130.5c-0.666992 -53.333 -15 -96.666 -43 -129.999s-64.667 -50 -110 -50zM178 52c27.333 0 49 11.167 65 33.5
s24 52.166 24 89.499c0 38 -8 68.167 -24 90.5s-37.667 33.5 -65 33.5s-48.833 -11.167 -64.5 -33.5s-23.834 -52.5 -24.501 -90.5c0.666992 -37.333 8.83398 -67.166 24.501 -89.499s37.167 -33.5 64.5 -33.5z" />
    <glyph glyph-name="uni2081" unicode="&#x2081;" horiz-adv-x="177" 
d="M86 0v283l-67 -27v56l91 38h41v-350h-65z" />
    <glyph glyph-name="uni2082" unicode="&#x2082;" horiz-adv-x="297" 
d="M26 0l-0.000976562 47l138 123c16.667 15.333 28.334 28.5 35.001 39.5s10 22.5 10 34.5c0 16 -6 29.167 -18 39.5s-27.667 15.5 -47 15.5c-16 0 -31.333 -3.33301 -46 -10s-30.667 -17.667 -48 -33l-37 43c20.667 18.667 42 32.667 64 42s45 14 69 14
c37.333 0 67.833 -9.83301 91.5 -29.5s35.5 -45.5 35.5 -77.5c0 -20 -5 -38.667 -15 -56s-27.667 -37.333 -53 -60l-86 -77h158v-55h-251z" />
    <glyph glyph-name="uni2083" unicode="&#x2083;" horiz-adv-x="319" 
d="M154 -5c-27.333 0 -52.8301 4.66699 -76.4971 14s-43.834 22.666 -60.501 39.999l44 41c14 -14.667 28 -24.834 42 -30.501s31 -8.5 51 -8.5c22 0 39.667 4.66699 53 14s20 21.666 20 36.999c0 14 -6.16699 24.833 -18.5 32.5s-28.833 11.5 -49.5 11.5h-32v53h26
c18 0 33 5 45 15s18 22.333 18 37c0 14 -5.83301 25.5 -17.5 34.5s-26.834 13.5 -45.501 13.5c-18 0 -33.5 -3.16699 -46.5 -9.5s-27.167 -17.166 -42.5 -32.499l-44 41c17.333 18 37.833 32.167 61.5 42.5s48.167 15.5 73.5 15.5c37.333 0 68 -9.16699 92 -27.5
s35.667 -41.833 35 -70.5c0.666992 -17.333 -3.83301 -33.166 -13.5 -47.499s-22.834 -25.5 -39.501 -33.5c19.333 -6.66699 35 -17 47 -31s18 -30.333 18 -49c0 -29.333 -13.167 -53.666 -39.5 -72.999s-59.833 -29 -100.5 -29z" />
    <glyph glyph-name="uni2084" unicode="&#x2084;" horiz-adv-x="341" 
d="M218 0v83h-197v53l188 214h75v-212h43v-55h-43v-83h-66zM96 138h122v139z" />
    <glyph glyph-name="uni2085" unicode="&#x2085;" horiz-adv-x="315" 
d="M150 -5c-51.333 0 -94.6689 15.668 -130.002 47.001l40 45c14.667 -13.333 29.334 -22.833 44.001 -28.5s30.667 -8.5 48 -8.5c22 0 39.667 5.66699 53 17s20 25.666 20 42.999s-7.16699 31.5 -21.5 42.5s-32.833 16.5 -55.5 16.5c-10 0 -20.833 -1 -32.5 -3
s-23.167 -5.33301 -34.5 -10l-42 13l9 181h224v-56h-172l-3 -84c10.667 4 21.334 6.83301 32.001 8.5s21.667 2.5 33 2.5c39.333 0 70.833 -10 94.5 -30s35.5 -46.667 35.5 -80c0 -34.667 -13.167 -62.667 -39.5 -84s-60.5 -32 -102.5 -32z" />
    <glyph glyph-name="uni2086" unicode="&#x2086;" horiz-adv-x="331" 
d="M178 -5c-46 0 -83.167 15.833 -111.5 47.5s-42.5 73.167 -42.5 124.5c0 56.667 15.833 102.167 47.5 136.5s73.834 51.5 126.501 51.5c17.333 0 35.166 -3 53.499 -9s33.833 -14 46.5 -24l-37 -47c-10 8 -20.833 13.667 -32.5 17s-23.834 5 -36.501 5
c-31.333 0 -55.666 -10.333 -72.999 -31s-27 -50.667 -29 -90c12 13.333 26.5 23.666 43.5 30.999s34.5 11 52.5 11c36 0 65.333 -10.167 88 -30.5s34 -46.166 34 -77.499c0 -32.667 -12.333 -60 -37 -82s-55.667 -33 -93 -33zM175 167
c-15.333 0 -29.998 -3.5 -43.998 -10.5s-26.333 -16.833 -37 -29.5c5.33301 -23.333 15.166 -41.833 29.499 -55.5s31.833 -20.5 52.5 -20.5c19.333 0 35.5 5.5 48.5 16.5s19.5 24.833 19.5 41.5c0 17.333 -6.33301 31.333 -19 42s-29.334 16 -50.001 16z" />
    <glyph glyph-name="uni2087" unicode="&#x2087;" horiz-adv-x="307" 
d="M58 0l163 294h-204v56h279v-48l-160 -302h-78z" />
    <glyph glyph-name="uni2088" unicode="&#x2088;" horiz-adv-x="331" 
d="M166 -5c-41.333 0 -75 9.5 -101 28.5s-39 43.5 -39 73.5c0 18.667 5.66699 35.5 17 50.5s26.666 26.167 45.999 33.5c-15.333 7.33301 -27.666 18 -36.999 32s-14 29 -14 45c0 28 12.167 51.333 36.5 70s54.5 28 90.5 28c36.667 0 67.167 -9.33301 91.5 -28
s36.5 -42 36.5 -70c0 -16 -4.66699 -31 -14 -45s-21.666 -24.667 -36.999 -32c18.667 -7.33301 33.667 -18.5 45 -33.5s17 -31.833 17 -50.5c0 -30 -12.833 -54.5 -38.5 -73.5s-58.834 -28.5 -99.501 -28.5zM166 205c17.333 0 32 4.66699 44 14s18 21 18 35
s-5.83301 25.667 -17.5 35s-26.5 14 -44.5 14c-18.667 0 -34 -4.66699 -46 -14s-18 -21 -18 -35s6 -25.667 18 -35s27.333 -14 46 -14zM166 49c20.667 0 38 5 52 15s21 22.333 21 37c0 16 -7 29 -21 39s-31.333 15 -52 15c-22 0 -39.833 -5 -53.5 -15s-20.5 -23 -20.5 -39
c0 -14.667 6.83301 -27 20.5 -37s31.5 -15 53.5 -15z" />
    <glyph glyph-name="uni2089" unicode="&#x2089;" horiz-adv-x="331" 
d="M153 355c46 0 83.167 -15.833 111.5 -47.5s42.5 -73.167 42.5 -124.5c0 -56.667 -15.833 -102.167 -47.5 -136.5s-73.834 -51.5 -126.501 -51.5c-17.333 0 -35.166 3 -53.499 9s-33.833 14 -46.5 24l37 47c10 -8 20.833 -13.667 32.5 -17s23.834 -5 36.501 -5
c31.333 0 55.666 10.333 72.999 31s27 50.667 29 90c-12 -13.333 -26.5 -23.666 -43.5 -30.999s-34.5 -11 -52.5 -11c-36 0 -65.333 10.167 -88 30.5s-34 46.166 -34 77.499c0 32.667 12.333 60 37 82s55.667 33 93 33zM156 183c15.333 0 29.998 3.5 43.998 10.5
s26.333 16.833 37 29.5c-5.33301 23.333 -15.166 41.833 -29.499 55.5s-31.833 20.5 -52.5 20.5c-19.333 0 -35.5 -5.5 -48.5 -16.5s-19.5 -24.833 -19.5 -41.5c0 -17.333 6.33301 -31.333 19 -42s29.334 -16 50.001 -16z" />
    <glyph glyph-name="Euro" unicode="&#x20ac;" horiz-adv-x="781" 
d="M467 -11c-56.667 0 -108.165 11.168 -154.498 33.501s-85.166 53.333 -116.499 93s-53 86.167 -65 139.5h-97v59h88c-0.666992 6 -1.16699 12 -1.5 18s-0.5 12 -0.5 18c0 6.66699 0.166992 13.167 0.5 19.5s0.833008 12.5 1.5 18.5h-88v59h97
c12.667 53.333 34.667 99.666 66 138.999s70.333 70 117 92s98.334 33 155.001 33c57.333 0 109.166 -10.667 155.499 -32s85.166 -52.666 116.499 -93.999l-70 -54c-22.667 31.333 -51.5 55.166 -86.5 71.499s-73.833 24.5 -116.5 24.5c-39.333 0 -75 -7.33301 -107 -22
s-59.167 -35.5 -81.5 -62.5s-39.166 -58.833 -50.499 -95.5h272l-22 -59h-262c-0.666992 -6 -1 -12.167 -1 -18.5v-19.5v-18c0 -6 0.333008 -12 1 -18h236l-22 -59h-202c10.667 -36.667 27.167 -68.667 49.5 -96s49.5 -48.5 81.5 -63.5s67.667 -22.5 107 -22.5
c41.333 0 80.166 8.5 116.499 25.5s65.5 40.5 87.5 70.5l67 -52c-30.667 -41.333 -69.334 -73 -116.001 -95s-98.334 -33 -155.001 -33z" />
    <glyph glyph-name="trademark" unicode="&#x2122;" horiz-adv-x="681" 
d="M325 421v279h68l82 -167l82 167h67v-279h-52l2 214l-99 -196l-99 193l1 -211h-52zM127 421v232h-97v47h248v-47h-97v-232h-54z" />
    <glyph glyph-name="uni2191" unicode="&#x2191;" horiz-adv-x="550" 
d="M227 0v570l-155 -200l-61 51l263 329l263 -329l-61 -51l-156 202v-572h-93z" />
    <glyph glyph-name="uni2193" unicode="&#x2193;" horiz-adv-x="550" 
d="M321 700v-570l155 200l61 -51l-263 -329l-263 329l61 51l156 -202v572h93z" />
    <glyph glyph-name="minus" unicode="&#x2212;" 
d="M94 319v78h412v-78h-412z" />
    <glyph glyph-name="uni2215" unicode="&#x2215;" horiz-adv-x="578" 
d="M26 0l394 700h77l-394 -700h-77z" />
    <glyph glyph-name="notequal" unicode="&#x2260;" 
d="M102 111l79 118h-87v78h136l65 97h-201v77h251l77 117h76l-77 -117h85v-77h-135l-65 -97h200v-78h-249l-79 -118h-76z" />
    <glyph glyph-name="fi" unicode="&#xfb01;" horiz-adv-x="614" 
d="M135 0l-0.000976562 425h-118v84h118v77c0 53.333 14.833 94 44.5 122s72.167 42 127.5 42c14 0 27.167 -0.833008 39.5 -2.5s23.5 -4.16699 33.5 -7.5v-86c-12 3.33301 -22.667 5.83301 -32 7.5s-19.666 2.5 -30.999 2.5c-28 0 -48.833 -6.5 -62.5 -19.5
s-20.5 -33.5 -20.5 -61.5v-74h146v-84h-146v-425h-99zM455.999 0v509h100v-509h-100zM505.999 591c-16.667 0 -31 6.16699 -43 18.5s-18 26.833 -18 43.5c0 17.333 6 31.833 18 43.5s26.333 17.5 43 17.5c17.333 0 32 -5.83301 44 -17.5s18 -26.167 18 -43.5
c0 -16.667 -6 -31.167 -18 -43.5s-26.667 -18.5 -44 -18.5z" />
    <glyph glyph-name="fl" unicode="&#xfb02;" horiz-adv-x="614" 
d="M135 0l-0.000976562 425h-118v84h118v77c0 53.333 14.833 94 44.5 122s72.167 42 127.5 42c14 0 27.167 -0.833008 39.5 -2.5s23.5 -4.16699 33.5 -7.5v-86c-12 3.33301 -22.667 5.83301 -32 7.5s-19.666 2.5 -30.999 2.5c-28 0 -48.833 -6.5 -62.5 -19.5
s-20.5 -33.5 -20.5 -61.5v-74h146v-84h-146v-425h-99zM455.999 0v700l100 19v-719h-100z" />
    <glyph glyph-name="uniFEFF" unicode="&#xfeff;" horiz-adv-x="0" 
 />
    <glyph glyph-name="uniFFFD" unicode="&#xfffd;" horiz-adv-x="575" 
d="M90 -100v850h394v-850h-394z" />
    <glyph glyph-name="NULL" horiz-adv-x="209" 
 />
    <glyph glyph-name="CR" horiz-adv-x="209" 
 />
    <glyph glyph-name="idotaccent" horiz-adv-x="216" 
d="M59 0v509h100v-509h-100zM109 591c-16.667 0 -31 6.16699 -43 18.5s-18 26.833 -18 43.5c0 17.333 6 31.833 18 43.5s26.333 17.5 43 17.5c17.333 0 32 -5.83301 44 -17.5s18 -26.167 18 -43.5c0 -16.667 -6 -31.167 -18 -43.5s-26.667 -18.5 -44 -18.5z" />
    <glyph glyph-name="a.school" horiz-adv-x="607" 
d="M293 -8c-47.333 0 -90.668 11.6699 -130.001 35.0029s-70.333 54.833 -93 94.5s-34 84.167 -34 133.5s11.333 93.666 34 132.999s53.834 70.666 93.501 93.999s83.5 35 131.5 35c28 0 55 -4.33301 81 -13s50 -21.334 72 -38.001v43h100v-509h-99v49
c-43.333 -38 -95.333 -57 -156 -57zM305.998 79.0029c29.333 0 56.166 5.33203 80.499 15.999s44.833 26 61.5 46v229c-16.667 18.667 -37.167 33.5 -61.5 44.5s-51.166 16.5 -80.499 16.5c-32 0 -61 -7.66699 -87 -23s-46.667 -36.166 -62 -62.499s-23 -56.166 -23 -89.499
s7.66699 -63.333 23 -90s36 -47.834 62 -63.501s55 -23.5 87 -23.5z" />
    <glyph glyph-name="aacute.school" horiz-adv-x="607" 
d="M293 -8c-47.333 0 -90.668 11.6699 -130.001 35.0029s-70.333 54.833 -93 94.5s-34 84.167 -34 133.5s11.333 93.666 34 132.999s53.834 70.666 93.501 93.999s83.5 35 131.5 35c28 0 55 -4.33301 81 -13s50 -21.334 72 -38.001v43h100v-509h-99v49
c-43.333 -38 -95.333 -57 -156 -57zM305.998 79.0029c29.333 0 56.166 5.33203 80.499 15.999s44.833 26 61.5 46v229c-16.667 18.667 -37.167 33.5 -61.5 44.5s-51.166 16.5 -80.499 16.5c-32 0 -61 -7.66699 -87 -23s-46.667 -36.166 -62 -62.499s-23 -56.166 -23 -89.499
s7.66699 -63.333 23 -90s36 -47.834 62 -63.501s55 -23.5 87 -23.5zM231.998 603.002l92 122h121l-129 -122h-84z" />
    <glyph glyph-name="abreve.school" horiz-adv-x="607" 
d="M293 -8c-47.333 0 -90.668 11.6699 -130.001 35.0029s-70.333 54.833 -93 94.5s-34 84.167 -34 133.5s11.333 93.666 34 132.999s53.834 70.666 93.501 93.999s83.5 35 131.5 35c28 0 55 -4.33301 81 -13s50 -21.334 72 -38.001v43h100v-509h-99v49
c-43.333 -38 -95.333 -57 -156 -57zM305.998 79.0029c29.333 0 56.166 5.33203 80.499 15.999s44.833 26 61.5 46v229c-16.667 18.667 -37.167 33.5 -61.5 44.5s-51.166 16.5 -80.499 16.5c-32 0 -61 -7.66699 -87 -23s-46.667 -36.166 -62 -62.499s-23 -56.166 -23 -89.499
s7.66699 -63.333 23 -90s36 -47.834 62 -63.501s55 -23.5 87 -23.5zM302.998 595.002c-42 0 -77.333 11.333 -106 34s-47.667 54 -57 94l65 17c15.333 -56 48 -84 98 -84c24 0 44.333 7 61 21s29 35 37 63l65 -17c-9.33301 -40 -28.333 -71.333 -57 -94s-64 -34 -106 -34z
" />
    <glyph glyph-name="acircumflex.school" horiz-adv-x="607" 
d="M293 -8c-47.333 0 -90.668 11.6699 -130.001 35.0029s-70.333 54.833 -93 94.5s-34 84.167 -34 133.5s11.333 93.666 34 132.999s53.834 70.666 93.501 93.999s83.5 35 131.5 35c28 0 55 -4.33301 81 -13s50 -21.334 72 -38.001v43h100v-509h-99v49
c-43.333 -38 -95.333 -57 -156 -57zM305.998 79.0029c29.333 0 56.166 5.33203 80.499 15.999s44.833 26 61.5 46v229c-16.667 18.667 -37.167 33.5 -61.5 44.5s-51.166 16.5 -80.499 16.5c-32 0 -61 -7.66699 -87 -23s-46.667 -36.166 -62 -62.499s-23 -56.166 -23 -89.499
s7.66699 -63.333 23 -90s36 -47.834 62 -63.501s55 -23.5 87 -23.5zM381.998 600.002l-80 77l-79 -77h-81l109 127h104l109 -127h-82z" />
    <glyph glyph-name="adieresis.school" horiz-adv-x="607" 
d="M293 -8c-47.333 0 -90.668 11.6699 -130.001 35.0029s-70.333 54.833 -93 94.5s-34 84.167 -34 133.5s11.333 93.666 34 132.999s53.834 70.666 93.501 93.999s83.5 35 131.5 35c28 0 55 -4.33301 81 -13s50 -21.334 72 -38.001v43h100v-509h-99v49
c-43.333 -38 -95.333 -57 -156 -57zM305.998 79.0029c29.333 0 56.166 5.33203 80.499 15.999s44.833 26 61.5 46v229c-16.667 18.667 -37.167 33.5 -61.5 44.5s-51.166 16.5 -80.499 16.5c-32 0 -61 -7.66699 -87 -23s-46.667 -36.166 -62 -62.499s-23 -56.166 -23 -89.499
s7.66699 -63.333 23 -90s36 -47.834 62 -63.501s55 -23.5 87 -23.5zM205.998 608.002c-16.667 0 -30.667 5.5 -42 16.5s-17 24.833 -17 41.5s5.66699 30.5 17 41.5s25.333 16.5 42 16.5s30.667 -5.5 42 -16.5s17 -24.833 17 -41.5c0 -16 -5.66699 -29.667 -17 -41
s-25.333 -17 -42 -17zM399.998 608.002c-16.667 0 -30.667 5.5 -42 16.5s-17 24.833 -17 41.5s5.66699 30.5 17 41.5s25.333 16.5 42 16.5s30.667 -5.5 42 -16.5s17 -24.833 17 -41.5c0 -16 -5.66699 -29.667 -17 -41s-25.333 -17 -42 -17z" />
    <glyph glyph-name="agrave.school" horiz-adv-x="607" 
d="M293 -8c-47.333 0 -90.668 11.6699 -130.001 35.0029s-70.333 54.833 -93 94.5s-34 84.167 -34 133.5s11.333 93.666 34 132.999s53.834 70.666 93.501 93.999s83.5 35 131.5 35c28 0 55 -4.33301 81 -13s50 -21.334 72 -38.001v43h100v-509h-99v49
c-43.333 -38 -95.333 -57 -156 -57zM305.998 79.0029c29.333 0 56.166 5.33203 80.499 15.999s44.833 26 61.5 46v229c-16.667 18.667 -37.167 33.5 -61.5 44.5s-51.166 16.5 -80.499 16.5c-32 0 -61 -7.66699 -87 -23s-46.667 -36.166 -62 -62.499s-23 -56.166 -23 -89.499
s7.66699 -63.333 23 -90s36 -47.834 62 -63.501s55 -23.5 87 -23.5zM279.998 603.002l-128 122h122l90 -122h-84z" />
    <glyph glyph-name="amacron.school" horiz-adv-x="607" 
d="M293 -8c-47.333 0 -90.668 11.6699 -130.001 35.0029s-70.333 54.833 -93 94.5s-34 84.167 -34 133.5s11.333 93.666 34 132.999s53.834 70.666 93.501 93.999s83.5 35 131.5 35c28 0 55 -4.33301 81 -13s50 -21.334 72 -38.001v43h100v-509h-99v49
c-43.333 -38 -95.333 -57 -156 -57zM305.998 79.0029c29.333 0 56.166 5.33203 80.499 15.999s44.833 26 61.5 46v229c-16.667 18.667 -37.167 33.5 -61.5 44.5s-51.166 16.5 -80.499 16.5c-32 0 -61 -7.66699 -87 -23s-46.667 -36.166 -62 -62.499s-23 -56.166 -23 -89.499
s7.66699 -63.333 23 -90s36 -47.834 62 -63.501s55 -23.5 87 -23.5zM153.998 622.002v67h298v-67h-298z" />
    <glyph glyph-name="aogonek.school" horiz-adv-x="607" 
d="M487 -221c-30.667 0 -55.168 8.00195 -73.501 24.002s-27.5 37.333 -27.5 64c0 24 7.5 46.5 22.5 67.5s39.167 42.833 72.5 65.5h-32v49c-43.333 -38 -95.333 -57 -156 -57c-47.333 0 -90.666 11.667 -129.999 35s-70.333 54.833 -93 94.5s-34 84.167 -34 133.5
s11.5 93.666 34.5 132.999s54.167 70.666 93.5 93.999s83 35 131 35c28 0 55 -4.33301 81 -13s50 -21.334 72 -38.001v43h100v-509c-34.667 -20.667 -60 -40.5 -76 -59.5s-24 -37.833 -24 -56.5c0 -15.333 4.83301 -27.166 14.5 -35.499s23.167 -12.5 40.5 -12.5
c8 0 16 1 24 3s15 5.33301 21 10l16 -48c-10.667 -6.66699 -22.667 -12 -36 -16s-27 -6 -41 -6zM133.999 256.002c0 -33.333 7.66992 -63.334 23.0029 -90.001s36 -47.834 62 -63.501s55 -23.5 87 -23.5c29.333 0 56.166 5.33301 80.499 16s44.833 26 61.5 46v229
c-16.667 18.667 -37.334 33.5 -62.001 44.5s-51.334 16.5 -80.001 16.5c-32 0 -61 -7.66699 -87 -23s-46.667 -36.166 -62 -62.499s-23 -56.166 -23 -89.499z" />
    <glyph glyph-name="aring.school" horiz-adv-x="607" 
d="M293 -8c-47.333 0 -90.668 11.6699 -130.001 35.0029s-70.333 54.833 -93 94.5s-34 84.167 -34 133.5s11.333 93.666 34 132.999s53.834 70.666 93.501 93.999s83.5 35 131.5 35c28 0 55 -4.33301 81 -13s50 -21.334 72 -38.001v43h100v-509h-99v49
c-43.333 -38 -95.333 -57 -156 -57zM305.998 79.0029c29.333 0 56.166 5.33203 80.499 15.999s44.833 26 61.5 46v229c-16.667 18.667 -37.167 33.5 -61.5 44.5s-51.166 16.5 -80.499 16.5c-32 0 -61 -7.66699 -87 -23s-46.667 -36.166 -62 -62.499s-23 -56.166 -23 -89.499
s7.66699 -63.333 23 -90s36 -47.834 62 -63.501s55 -23.5 87 -23.5zM302.998 584.002c-21.333 0 -40.833 5.16699 -58.5 15.5s-31.667 24.333 -42 42s-15.5 36.834 -15.5 57.501s5.16699 39.667 15.5 57s24.333 31.333 42 42s37.167 16 58.5 16s40.833 -5.33301 58.5 -16
s31.667 -24.667 42 -42s15.5 -36.333 15.5 -57s-5.16699 -39.834 -15.5 -57.501s-24.333 -31.667 -42 -42s-37.167 -15.5 -58.5 -15.5zM302.998 632.002c18.667 0 34.5 6.5 47.5 19.5s19.5 28.833 19.5 47.5s-6.5 34.5 -19.5 47.5s-28.833 19.5 -47.5 19.5
s-34.5 -6.5 -47.5 -19.5s-19.5 -28.833 -19.5 -47.5s6.5 -34.5 19.5 -47.5s28.833 -19.5 47.5 -19.5z" />
    <glyph glyph-name="atilde.school" horiz-adv-x="607" 
d="M293 -8c-47.333 0 -90.668 11.6699 -130.001 35.0029s-70.333 54.833 -93 94.5s-34 84.167 -34 133.5s11.333 93.666 34 132.999s53.834 70.666 93.501 93.999s83.5 35 131.5 35c28 0 55 -4.33301 81 -13s50 -21.334 72 -38.001v43h100v-509h-99v49
c-43.333 -38 -95.333 -57 -156 -57zM305.998 79.0029c29.333 0 56.166 5.33203 80.499 15.999s44.833 26 61.5 46v229c-16.667 18.667 -37.167 33.5 -61.5 44.5s-51.166 16.5 -80.499 16.5c-32 0 -61 -7.66699 -87 -23s-46.667 -36.166 -62 -62.499s-23 -56.166 -23 -89.499
s7.66699 -63.333 23 -90s36 -47.834 62 -63.501s55 -23.5 87 -23.5zM189.998 596.002l-66.001 13c16 72.667 50.333 109 103 109c18 0 35.667 -4.33301 53 -13s33.666 -17.5 48.999 -26.5s30 -13.5 44 -13.5c11.333 0 20.333 4.16699 27 12.5s12.334 22.833 17.001 43.5
l64 -13c-7.33301 -36.667 -19.666 -64 -36.999 -82s-39 -27 -65 -27c-17.333 0 -34.833 4.5 -52.5 13.5l-50 26.5c-15.667 8.66699 -30.167 13 -43.5 13c-12 0 -21.167 -4.33301 -27.5 -13s-11.5 -23 -15.5 -43z" />
    </font>
</defs>
</svg>
