<?xml version="1.0" standalone="no"?>
<!DOCTYPE svg PUBLIC "-//W3C//DTD SVG 1.1//EN" "http://www.w3.org/Graphics/SVG/1.1/DTD/svg11.dtd" >
<svg>
<metadata>
Created by FontForge 20090914 at Wed Nov 30 10:42:06 2022
 By www-data
Copyright 2021 The Red Hat Project Authors (https://github.com/RedHatOfficial/RedHatFont)
</metadata>
<defs>
<font id="RedHatDisplay-Bold" horiz-adv-x="600" >
  <font-face 
    font-family="Red Hat Display"
    font-weight="700"
    font-stretch="normal"
    units-per-em="1000"
    panose-1="2 1 3 3 4 2 1 6 3 3"
    ascent="800"
    descent="-200"
    x-height="520.999"
    cap-height="700"
    bbox="-72.001 -286 1126 1005"
    underline-thickness="100"
    underline-position="-150"
    unicode-range="U+0020-U+FFFD"
  />
<missing-glyph horiz-adv-x="514" 
d="M60 -100v850h394v-850h-394z" />
    <glyph glyph-name=".notdef" horiz-adv-x="514" 
d="M60 -100v850h394v-850h-394z" />
    <glyph glyph-name="space" unicode=" " horiz-adv-x="201" 
 />
    <glyph glyph-name="exclam" unicode="!" horiz-adv-x="241" 
d="M68 210l-17 495h139l-17 -495h-105zM120 -10c-22 0 -41 8 -57 24s-24 35 -24 57c0 22.667 8 42 24 58s35 24 57 24c22.667 0 42 -8 58 -24s24 -35.333 24 -58c0 -22 -8 -41 -24 -57s-35.333 -24 -58 -24z" />
    <glyph glyph-name="quotedbl" unicode="&#x22;" horiz-adv-x="435" 
d="M76 425l-17 280h133l-16 -280h-100zM261 425l-17 280h133l-16 -280h-100z" />
    <glyph glyph-name="numbersign" unicode="#" horiz-adv-x="738" 
d="M70 0l56 194h-97v98h125l33 116h-108v98h136l55 194h123l-55 -194h151l56 194h122l-55 -194h97v-98h-125l-33 -116h108v-98h-136l-56 -194h-122l56 194h-152l-56 -194h-123zM277 292h151l34 116h-152z" />
    <glyph glyph-name="dollar" unicode="$" horiz-adv-x="601" 
d="M257 -66l-0.000976562 86c-48.667 4 -94.5 15.167 -137.5 33.5s-80.833 42.833 -113.5 73.5l71 97c52.667 -50 112.667 -80.333 180 -91v161l-54 11c-65.333 12 -112 32 -140 60s-42 68 -42 120c0 40 9.5 74.667 28.5 104s46.333 52.333 82 69s77.5 25.667 125.5 27v83
h67v-86c40.667 -4 81 -12.667 121 -26s77 -31 111 -53l-58 -105c-31.333 18.667 -61.333 33.667 -90 45s-56.667 19.333 -84 24v-159l53 -9c70 -13.333 120.5 -33.833 151.5 -61.5s46.5 -66.167 46.5 -115.5c0 -39.333 -10.167 -73.833 -30.5 -103.5
s-49.166 -53.167 -86.499 -70.5s-82 -27.333 -134 -30v-84h-67zM256.999 416v155.999c-32.667 -1.33301 -59.167 -8.66602 -79.5 -21.999s-30.5 -31.333 -30.5 -54c0 -16 3.16699 -29.167 9.5 -39.5s16.5 -18.5 30.5 -24.5s33 -11 57 -15zM323.999 127.999
c36 2.66699 64.833 11.1689 86.5 25.502s32.5 33.166 32.5 56.499c0 15.333 -2.83301 27.666 -8.5 36.999s-16.167 17 -31.5 23s-37 11 -65 15l-14 3v-160z" />
    <glyph glyph-name="percent" unicode="%" horiz-adv-x="793" 
d="M182 345c-48.667 0 -87.499 16.5 -116.499 49.5s-43.5 76.833 -43.5 131.5c0 53.333 14.667 96.666 44 129.999s68 50 116 50c47.333 0 85.666 -16.667 114.999 -50s44 -76.666 44 -129.999c0 -54.667 -14.5 -98.5 -43.5 -131.5s-67.5 -49.5 -115.5 -49.5zM182.001 418
c24 0 42.834 9.5 56.501 28.5s20.5 45.5 20.5 79.5c0 32.667 -7 58.667 -21 78s-32.667 29 -56 29c-24 0 -42.833 -9.66699 -56.5 -29s-20.834 -45.333 -21.501 -78c0.666992 -34 7.66699 -60.5 21 -79.5s32.333 -28.5 57 -28.5zM143.002 0l396 700h102l-396 -700h-102z
M612.002 -5c-48.667 0 -87.499 16.5 -116.499 49.5s-43.5 76.833 -43.5 131.5c0 53.333 14.667 96.666 44 129.999s68 50 116 50c47.333 0 85.666 -16.667 114.999 -50s44 -76.666 44 -129.999c0 -54.667 -14.5 -98.5 -43.5 -131.5s-67.5 -49.5 -115.5 -49.5zM612.003 68
c24 0 42.834 9.5 56.501 28.5s20.5 45.5 20.5 79.5c0 32.667 -7 58.667 -21 78s-32.667 29 -56 29c-24 0 -42.833 -9.66699 -56.5 -29s-20.834 -45.333 -21.501 -78c0.666992 -34 7.66699 -60.5 21 -79.5s32.333 -28.5 57 -28.5z" />
    <glyph glyph-name="ampersand" unicode="&#x26;" horiz-adv-x="684" 
d="M271 -11c-48.667 0 -91.5029 8.33496 -128.503 25.002s-65.833 40.167 -86.5 70.5s-31 65.166 -31 104.499c0 28 4.33301 53 13 75s22.834 42.333 42.501 61s46.167 37.667 79.5 57c-21.333 27.333 -36.333 52.833 -45 76.5s-13 49.167 -13 76.5
c0 33.333 8.33301 63.333 25 90s39.834 47.667 69.501 63s63.167 23 100.5 23c36.667 0 69.167 -7.16699 97.5 -21.5s50.833 -33.833 67.5 -58.5s25 -53 25 -85c0 -30.667 -8.16699 -58.5 -24.5 -83.5s-41.166 -47.833 -74.499 -68.5l-51 -31l64 -64.5l70 -66.5
c12 22 22.5 46.333 31.5 73s16.833 55 23.5 85l118 -19c-10 -44 -22 -84 -36 -120s-30.333 -68 -49 -96l49.5 -40.5l50.5 -38.5l-82 -97l-48.5 38.5l-50.5 40.5c-28 -22.667 -59.5 -39.834 -94.5 -51.501s-72.5 -17.5 -112.5 -17.5zM270.997 441.002l40.999 24.002
c18 11.333 31 23.166 39 35.499s12 26.166 12 41.499c0 19.333 -6.66699 35.5 -20 48.5s-29.666 19.5 -48.999 19.5c-20 0 -36.5 -6.83301 -49.5 -20.5s-19.5 -31.167 -19.5 -52.5c0 -14.667 3.33301 -29 10 -43s18.667 -31.667 36 -53zM280.996 97.0039
c20.667 0 40.334 2.99805 59.001 8.99805s35.667 15.333 51 28c-30 27.333 -58.833 55 -86.5 83s-53.834 56 -78.501 84c-18.667 -10.667 -33.5 -21.167 -44.5 -31.5s-18.833 -21.166 -23.5 -32.499s-7 -24 -7 -38c0 -31.333 11.667 -56.166 35 -74.499s55 -27.5 95 -27.5z
" />
    <glyph glyph-name="quotesingle" unicode="'" horiz-adv-x="251" 
d="M76 425l-17 280h133l-16 -280h-100z" />
    <glyph glyph-name="parenleft" unicode="(" horiz-adv-x="412" 
d="M312 -219c-83.333 49.333 -147.333 114 -192 194s-67 171 -67 273s22.333 193 67 273s108.667 144.333 192 193l76 -85c-67.333 -42 -118.833 -95.5 -154.5 -160.5s-53.5 -138.5 -53.5 -220.5c0 -82.667 17.833 -156.5 53.5 -221.5s87.167 -118.167 154.5 -159.5z" />
    <glyph glyph-name="parenright" unicode=")" horiz-adv-x="412" 
d="M100 714c83.333 -49.333 147.333 -114 192 -194s67 -171 67 -273s-22.333 -193 -67 -273s-108.667 -144.333 -192 -193l-76 85c67.333 42 118.833 95.5 154.5 160.5s53.5 138.5 53.5 220.5c0 82.667 -17.833 156.5 -53.5 221.5s-87.167 118.167 -154.5 159.5z" />
    <glyph glyph-name="asterisk" unicode="*" horiz-adv-x="475" 
d="M194 316l2 116l-105 -65l-48 75l113 66l-113 67l49 74l104 -66l-2 117h89l-2 -116l104 65l49 -74l-113 -67l113 -66l-50 -75l-103 64l2 -115h-89z" />
    <glyph glyph-name="plus" unicode="+" 
d="M247 129v176h-164v103h164v176h106v-176h164v-103h-164v-176h-106z" />
    <glyph glyph-name="comma" unicode="," horiz-adv-x="250" 
d="M3 -151l68 263h142l-107 -263h-103z" />
    <glyph glyph-name="hyphen" unicode="-" horiz-adv-x="458" 
d="M41 227v116h376v-116h-376z" />
    <glyph glyph-name="period" unicode="." horiz-adv-x="250" 
d="M125 -10c-22 0 -41 8 -57 24s-24 35 -24 57c0 22.667 8 42 24 58s35 24 57 24s41 -8 57 -24s24 -35.333 24 -58c0 -22 -8 -41 -24 -57s-35 -24 -57 -24z" />
    <glyph glyph-name="slash" unicode="/" horiz-adv-x="512" 
d="M-57 -208l407 908h132l-407 -908h-132z" />
    <glyph glyph-name="zero" unicode="0" horiz-adv-x="685" 
d="M342 -11c-60.667 0 -114.167 15.167 -160.5 45.5s-82.333 72.666 -108 126.999s-38.5 117.166 -38.5 188.499c0 72 12.833 135 38.5 189s61.667 96.167 108 126.5s99.833 45.5 160.5 45.5c61.333 0 115.166 -15.167 161.499 -45.5s82.333 -72.5 108 -126.5
s38.5 -117 38.5 -189c0 -71.333 -12.833 -134.166 -38.5 -188.499s-61.667 -96.666 -108 -126.999s-100.166 -45.5 -161.499 -45.5zM342 108c36 0 67 9.66699 93 29s46.167 47.333 60.5 84s21.5 79.667 21.5 129c0 50 -7.16699 93.167 -21.5 129.5
s-34.5 64.166 -60.5 83.499s-57 29 -93 29c-35.333 0 -66 -9.66699 -92 -29s-46.167 -47.166 -60.5 -83.499s-21.5 -79.5 -21.5 -129.5c0 -49.333 7.16699 -92.333 21.5 -129s34.5 -64.667 60.5 -84s56.667 -29 92 -29z" />
    <glyph glyph-name="one" unicode="1" horiz-adv-x="349" 
d="M158 0v561l-137 -57v120l187 76h87v-700h-137z" />
    <glyph glyph-name="two" unicode="2" horiz-adv-x="573" 
d="M49 0l-0.000976562 93.9971l292 296c14 14.667 25.167 28.334 33.5 41.001s14.333 25.167 18 37.5s5.5 24.833 5.5 37.5c0 26 -10.833 47.667 -32.5 65s-49.167 26 -82.5 26c-32 0 -61.667 -6.5 -89 -19.5s-57.333 -35.167 -90 -66.5l-74 90
c39.333 36.667 80.333 64.167 123 82.5s87.334 27.5 134.001 27.5c47.333 0 89 -8.33301 125 -25s64 -39.667 84 -69s30 -63.666 30 -102.999c0 -22.667 -3.16699 -44 -9.5 -64s-16.5 -40.167 -30.5 -60.5s-32.667 -42.166 -56 -65.499l-212 -213l319 1v-112h-488z" />
    <glyph glyph-name="three" unicode="3" horiz-adv-x="616" 
d="M299 -11c-54 0 -104.172 9.5 -150.505 28.5s-85.166 45.833 -116.499 80.5l88 82c26.667 -28.667 53.167 -48.5 79.5 -59.5s58.833 -16.5 97.5 -16.5c28 0 52.5 4.16699 73.5 12.5s37.333 20.166 49 35.499s17.5 33 17.5 53c0 18.667 -4.66699 34.667 -14 48
s-22 23.833 -38 31.5s-35 11.5 -57 11.5h-88v108h76c31.333 0 56 8.16699 74 24.5s27 38.833 27 67.5c0 18.667 -5.33301 35.5 -16 50.5s-25.167 26.833 -43.5 35.5s-39.166 13 -62.499 13c-34.667 0 -64.5 -6 -89.5 -18s-51.167 -33.333 -78.5 -64l-89 82
c32.667 36.667 71.834 65.167 117.501 85.5s93.834 30.5 144.501 30.5c48.667 0 91.667 -8.5 129 -25.5s66.666 -40.5 87.999 -70.5s32 -64.333 32 -103c0 -37.333 -12.333 -70.5 -37 -99.5s-56.667 -49.167 -96 -60.5c46.667 -9.33301 83.834 -28 111.501 -56
s41.5 -61.667 41.5 -101s-11.667 -74.666 -35 -105.999s-55.166 -55.833 -95.499 -73.5s-86.833 -26.5 -139.5 -26.5z" />
    <glyph glyph-name="four" unicode="4" horiz-adv-x="673" 
d="M422 0v164h-395v110l374 426h158v-421h86v-115h-86v-164h-137zM186 279h236v267z" />
    <glyph glyph-name="five" unicode="5" horiz-adv-x="603" 
d="M285 -11c-96.667 0 -180.332 31.332 -250.999 93.999l78 91c30 -25.333 59 -43.666 87 -54.999s58.667 -17 92 -17c27.333 0 51 5 71 15s35.833 24 47.5 42s17.5 39 17.5 63c0 34 -13.167 62 -39.5 84s-60.5 33 -102.5 33c-20.667 0 -41.334 -3 -62.001 -9
s-42 -15 -64 -27l-93 28l16 369h441v-112h-326l-8 -177c24.667 12 48.167 20 70.5 24s44.5 6 66.5 6c47.333 0 88.5 -8.83301 123.5 -26.5s62.167 -42.5 81.5 -74.5s29 -69.333 29 -112c0 -47.333 -11.5 -89 -34.5 -125s-55.167 -64 -96.5 -84s-89.333 -30 -144 -30z" />
    <glyph glyph-name="six" unicode="6" horiz-adv-x="636" 
d="M341 -11c-59.333 0 -111.334 14.666 -156.001 43.999s-79.5 69.833 -104.5 121.5s-37.5 111.834 -37.5 180.501c0 75.333 13.833 141.166 41.5 197.499s66.334 100.166 116.001 131.499s107.834 47 174.501 47c36.667 0 73 -6 109 -18s66 -28.667 90 -50l-74 -94
c-19.333 15.333 -40 26.666 -62 33.999s-46.333 11 -73 11c-40.667 0 -75.334 -10.333 -104.001 -31s-50.5 -50.167 -65.5 -88.5s-22.833 -85.166 -23.5 -140.499c23.333 32 51.333 56.833 84 74.5s67 26.5 103 26.5c46 0 86.667 -9.16699 122 -27.5s63 -43.666 83 -75.999
s30 -69.166 30 -110.499c0 -44 -11 -83.5 -33 -118.5s-52 -62.667 -90 -83s-81.333 -30.5 -130 -30.5zM336.999 331.999c-30.667 0 -59.5 -6.33203 -86.5 -18.999s-50.833 -30.667 -71.5 -54c6.66699 -32 17.167 -59.833 31.5 -83.5s32.166 -41.834 53.499 -54.501
s45 -19 71 -19c24.667 0 46.834 5 66.501 15s35.167 23.833 46.5 41.5s17 37.5 17 59.5c0 22.667 -5.33301 42.5 -16 59.5s-25.5 30.333 -44.5 40s-41.5 14.5 -67.5 14.5z" />
    <glyph glyph-name="seven" unicode="7" 
d="M105 0l314 585h-392v115h533v-98l-299 -602h-156z" />
    <glyph glyph-name="eight" unicode="8" horiz-adv-x="633" 
d="M314 -11c-52 0 -98.0029 8.83496 -138.003 26.502s-71.333 42 -94 73s-34 66.5 -34 106.5c0 26 5.83301 50.167 17.5 72.5s28.334 41.666 50.001 57.999s46.167 28.5 73.5 36.5c-35.333 12.667 -64 32.667 -86 60s-33 58 -33 92c0 37.333 10.667 70.833 32 100.5
s50.5 53.167 87.5 70.5s78.5 26 124.5 26c46.667 0 88.334 -8.66699 125.001 -26s65.667 -40.833 87 -70.5s32 -63.167 32 -100.5c0 -34 -11 -64.667 -33 -92s-50.667 -47.333 -86 -60c42 -12.667 76 -33.834 102 -63.501s39 -64.167 39 -103.5
c0 -40 -11.167 -75.5 -33.5 -106.5s-53.666 -55.333 -93.999 -73s-86.5 -26.5 -138.5 -26.5zM313.997 408.002c22 0 41.833 4.16699 59.5 12.5s31.5 19.833 41.5 34.5s15 31.334 15 50.001s-5 35.5 -15 50.5s-23.833 26.667 -41.5 35s-37.5 12.5 -59.5 12.5
s-41.833 -4.16699 -59.5 -12.5s-31.5 -19.833 -41.5 -34.5s-15 -31.667 -15 -51c0 -18.667 5 -35.334 15 -50.001s23.833 -26.167 41.5 -34.5s37.5 -12.5 59.5 -12.5zM313.997 98.002c26.667 0 50 4.5 70 13.5s35.667 21.667 47 38s17 34.5 17 54.5
c0 20.667 -5.66699 39 -17 55s-27 28.667 -47 38s-43.333 14 -70 14c-26 0 -49.167 -4.66699 -69.5 -14s-36.166 -22 -47.499 -38s-17 -34.333 -17 -55c0 -20 5.66699 -38.167 17 -54.5s27.166 -29 47.499 -38s43.5 -13.5 69.5 -13.5z" />
    <glyph glyph-name="nine" unicode="9" horiz-adv-x="636" 
d="M295 711c59.333 0 111.5 -14.5 156.5 -43.5s80 -69.5 105 -121.5s37.5 -112.333 37.5 -181c0 -74.667 -13.833 -140.334 -41.5 -197.001s-66.5 -100.667 -116.5 -132s-108.333 -47 -175 -47c-36 0 -72.167 6.16699 -108.5 18.5s-66.5 28.833 -90.5 49.5l74 95
c19.333 -15.333 40.166 -26.666 62.499 -33.999s46.5 -11 72.5 -11c41.333 0 76.166 10.167 104.499 30.5s50 50 65 89s22.833 85.833 23.5 140.5c-23.333 -32 -51.166 -56.833 -83.499 -74.5s-66.833 -26.5 -103.5 -26.5c-45.333 0 -85.666 9 -120.999 27
s-63 43.167 -83 75.5s-30 69.166 -30 110.499c0 44.667 10.833 84.334 32.5 119.001s51.667 62.167 90 82.5s81.5 30.5 129.5 30.5zM299 368c30.667 0 59.501 6.50098 86.501 19.501s50.833 30.833 71.5 53.5c-6 32 -16.333 59.833 -31 83.5s-32.5 42 -53.5 55
s-44.833 19.5 -71.5 19.5c-24.667 0 -46.834 -5 -66.501 -15s-35.167 -23.833 -46.5 -41.5s-17 -37.834 -17 -60.501c0 -22 5.5 -41.667 16.5 -59s26.167 -30.833 45.5 -40.5s41.333 -14.5 66 -14.5z" />
    <glyph glyph-name="colon" unicode=":" horiz-adv-x="250" 
d="M125 -10c-22 0 -41 8 -57 24s-24 35 -24 57c0 22.667 8 42 24 58s35 24 57 24s41 -8 57 -24s24 -35.333 24 -58c0 -22 -8 -41 -24 -57s-35 -24 -57 -24zM125 368c-22 0 -41 8 -57 24s-24 35 -24 57c0 22.667 8 42 24 58s35 24 57 24s41 -8 57 -24s24 -35.333 24 -58
c0 -22 -8 -41 -24 -57s-35 -24 -57 -24z" />
    <glyph glyph-name="semicolon" unicode=";" horiz-adv-x="250" 
d="M137 368c-22 0 -41 8 -57 24s-24 35 -24 57c0 22.667 8 42 24 58s35 24 57 24s41 -8 57 -24s24 -35.333 24 -58c0 -22 -8 -41 -24 -57s-35 -24 -57 -24zM-3 -151l68 263h142l-107 -263h-103z" />
    <glyph glyph-name="less" unicode="&#x3c;" 
d="M419 60l-343 288l345 287l69 -79l-253 -207l253 -207z" />
    <glyph glyph-name="equal" unicode="=" 
d="M83 206v103h434v-103h-434zM83 397v103h434v-103h-434z" />
    <glyph glyph-name="greater" unicode="&#x3e;" 
d="M181 636l343 -288l-345 -287l-69 79l253 207l-253 207z" />
    <glyph glyph-name="question" unicode="?" horiz-adv-x="526" 
d="M179 213c-1.33301 30.667 -0.000976562 56.666 3.99902 77.999s12 40.5 24 57.5s28.333 33.167 49 48.5l52 37c20.667 15.333 35.5 29.5 44.5 42.5s13.5 26.5 13.5 40.5c0 15.333 -4.66699 28.833 -14 40.5s-22 21 -38 28s-34.333 10.5 -55 10.5
c-30 0 -57.667 -7.66699 -83 -23s-44.666 -36 -57.999 -62l-110 46c14.667 32 34.667 59.333 60 82s54.833 40.334 88.5 53.001s69.5 19 107.5 19c45.333 0 85.666 -8.16699 120.999 -24.5s63.333 -38.5 84 -66.5s31 -60 31 -96c0 -24 -3.83301 -45.5 -11.5 -64.5
s-20.5 -37.5 -38.5 -55.5s-42.667 -37.667 -74 -59l-27 -19c-21.333 -14 -36.166 -29.667 -44.499 -47s-11.833 -39.333 -10.5 -66h-115zM236.999 -10.001c-22 0 -41 8 -57 24s-24 35 -24 57c0 22.667 8 42 24 58s35 24 57 24s41 -8 57 -24s24 -35.333 24 -58
c0 -22 -8 -41 -24 -57s-35 -24 -57 -24z" />
    <glyph glyph-name="at" unicode="@" horiz-adv-x="787" 
d="M411 -144c-54 0 -103.67 8.66992 -149.003 26.0029s-84.666 41.833 -117.999 73.5s-59.166 68.834 -77.499 111.501s-27.5 89.334 -27.5 140.001c0 53.333 9.33301 102.833 28 148.5s44.667 85.5 78 119.5s72.666 60.333 117.999 79s94.666 28 147.999 28
c48 0 92.5 -7.83301 133.5 -23.5s76.833 -37.334 107.5 -65.001s54.667 -59.834 72 -96.501s26 -76.334 26 -119.001c0 -45.333 -8.16699 -85.333 -24.5 -120s-38.833 -61.834 -67.5 -81.501s-62 -29.5 -100 -29.5c-49.333 0 -84 13.667 -104 41
c-14.667 -13.333 -31 -23.5 -49 -30.5s-36.333 -10.5 -55 -10.5c-27.333 0 -52.166 7 -74.499 21s-39.833 32.833 -52.5 56.5s-19 49.834 -19 78.501c0 34.667 8 65.667 24 93s37.333 49.333 64 66s57 25 91 25c35.333 0 65.666 -10.667 90.999 -32l4 19h97l-43 -206
c-3.33301 -16.667 -1.33301 -29.5 6 -38.5s19 -13.5 35 -13.5c20 0 38 6.66699 54 20s28.333 31.666 37 54.999s13 50 13 80c0 48 -11.833 90.667 -35.5 128s-55.667 67 -96 89s-86.166 33 -137.499 33c-41.333 0 -80.166 -7.83301 -116.499 -23.5s-68 -37.334 -95 -65.001
s-48 -60.334 -63 -98.001s-22.5 -78.167 -22.5 -121.5c0 -57.333 12.667 -107.666 38 -150.999s60.5 -77.333 105.5 -102s96.833 -37 155.5 -37c60.667 0 115.334 11.667 164.001 35l26 -58c-31.333 -14.667 -62.5 -25.667 -93.5 -33s-62.833 -11 -95.5 -11z
M372.997 127.003c24 0 45.001 8.33105 63.001 24.998c0.666992 4.66699 1.16699 9.33398 1.5 14.001s1.16602 10 2.49902 16l17 89c-8 11.333 -17.833 19.833 -29.5 25.5s-25.5 8.5 -41.5 8.5c-15.333 0 -29.833 -4.16699 -43.5 -12.5s-24.5 -19.666 -32.5 -33.999
s-12 -30.166 -12 -47.499c0 -24.667 7 -44.834 21 -60.501s32 -23.5 54 -23.5z" />
    <glyph glyph-name="A" unicode="A" horiz-adv-x="732" 
d="M-4 0l288 700h167l285 -700h-157l-71 184h-289l-72 -184h-151zM264 300h200l-100 258z" />
    <glyph glyph-name="B" unicode="B" horiz-adv-x="691" 
d="M63 0l0.00195312 700.001h329c47.333 0 88.666 -8 123.999 -24s63 -38.5 83 -67.5s30 -62.5 30 -100.5c0 -30.667 -7.83301 -58.834 -23.5 -84.501s-36.834 -46.5 -63.501 -62.5c34 -16 61 -37.667 81 -65s30 -58.333 30 -93c0 -40 -10.167 -75.333 -30.5 -106
s-49 -54.5 -86 -71.5s-79.833 -25.5 -128.5 -25.5h-345zM208.002 414.001h175c31.333 0 56.166 7.5 74.499 22.5s27.5 35.167 27.5 60.5s-9.16699 45.5 -27.5 60.5s-43.166 22.5 -74.499 22.5h-175v-166zM208.002 120.001l189 0.000976562c33.333 0 60 8.16699 80 24.5
s30 38.166 30 65.499c0 28 -10 50.167 -30 66.5s-46.667 24.5 -80 24.5h-189v-181z" />
    <glyph glyph-name="C" unicode="C" horiz-adv-x="718" 
d="M408 -10c-52 0 -100.669 9.16211 -146.002 27.4951s-84.833 43.833 -118.5 76.5s-60 70.834 -79 114.501s-28.5 90.834 -28.5 141.501c0 51.333 9.5 98.833 28.5 142.5s45.5 81.834 79.5 114.501s73.5 58.167 118.5 76.5s93.5 27.5 145.5 27.5
c38.667 0 76 -5.33301 112 -16s69.5 -25.667 100.5 -45s57.5 -42.666 79.5 -69.999l-98 -97c-25.333 31.333 -54.5 55 -87.5 71s-68.5 24 -106.5 24c-31.333 0 -60.666 -5.83301 -87.999 -17.5s-51 -27.667 -71 -48s-35.667 -44.333 -47 -72s-17 -57.834 -17 -90.501
c0 -32 5.66699 -61.833 17 -89.5s27.333 -51.667 48 -72s44.834 -36.166 72.501 -47.499s57.834 -17 90.501 -17c36.667 0 71 7.66699 103 23s60.333 37.333 85 66l95 -94c-22 -26.667 -48.333 -49.667 -79 -69s-63.834 -34.166 -99.501 -44.499s-72.167 -15.5 -109.5 -15.5
z" />
    <glyph glyph-name="D" unicode="D" horiz-adv-x="738" 
d="M208 129h122c31.333 0 60.5 5.5 87.5 16.5s50.667 26.5 71 46.5s36 43.333 47 70s16.5 55.667 16.5 87s-5.66699 60.5 -17 87.5s-27 50.5 -47 70.5s-43.5 35.667 -70.5 47s-56.167 17 -87.5 17h-122v-442zM63 0l0.00195312 700.001h269
c52.667 0 101.334 -8.83301 146.001 -26.5s83.667 -42.5 117 -74.5s59.5 -69.333 78.5 -112s28.5 -88.667 28.5 -138c0 -50 -9.33301 -96 -28 -138s-44.834 -78.833 -78.501 -110.5s-72.834 -56.334 -117.501 -74.001s-93.334 -26.5 -146.001 -26.5h-269z" />
    <glyph glyph-name="E" unicode="E" horiz-adv-x="645" 
d="M63 0v700h538v-126h-393v-160h259v-122h-259v-166h397v-126h-542z" />
    <glyph glyph-name="F" unicode="F" horiz-adv-x="639" 
d="M63 0v700h541v-126h-396v-165h263v-122h-263v-287h-145z" />
    <glyph glyph-name="G" unicode="G" horiz-adv-x="794" 
d="M407 -11c-52 0 -100.33 9.16699 -144.997 27.5s-84 44 -118 77s-60.5 71.333 -79.5 115s-28.5 90.834 -28.5 141.501s9.5 97.834 28.5 141.501s45.167 82 78.5 115s72.5 58.667 117.5 77s93.167 27.5 144.5 27.5c58 0 112.667 -11.5 164 -34.5
s93.666 -55.167 126.999 -96.5l-101 -93c-24 30 -52.333 52.667 -85 68s-67.667 23 -105 23c-31.333 0 -60.333 -5.83301 -87 -17.5s-50 -27.667 -70 -48s-35.5 -44.333 -46.5 -72s-16.5 -57.834 -16.5 -90.501s5.66699 -63 17 -91s27.166 -52.167 47.499 -72.5
s44 -36.333 71 -48s56.5 -17.5 88.5 -17.5c33.333 0 63.333 6.16699 90 18.5s49.167 29.666 67.5 51.999s30.5 47.5 36.5 75.5h-207v126h362v-44c0 -52 -8.83301 -99.833 -26.5 -143.5s-42.167 -81.667 -73.5 -114s-68.333 -57.5 -111 -75.5s-89.334 -27 -140.001 -27z" />
    <glyph glyph-name="H" unicode="H" horiz-adv-x="739" 
d="M63 0v700h145v-282h322v282h145v-700h-145v287h-322v-287h-145z" />
    <glyph glyph-name="I" unicode="I" horiz-adv-x="272" 
d="M63 0v700h145v-700h-145z" />
    <glyph glyph-name="J" unicode="J" horiz-adv-x="641" 
d="M300 -10c-70 0 -129.332 17.666 -177.999 52.999s-83.667 86 -105 152l134 51c14.667 -42.667 34.167 -74 58.5 -94s54.5 -30 90.5 -30c43.333 0 78.166 14 104.499 42s39.5 65.333 39.5 112v424h145v-428c0 -56.667 -12 -106.167 -36 -148.5
s-57.667 -75.166 -101 -98.499s-94 -35 -152 -35z" />
    <glyph glyph-name="K" unicode="K" horiz-adv-x="697" 
d="M63 0v700h145v-313l306 313h177l-340 -333l356 -367h-194l-305 325v-325h-145z" />
    <glyph glyph-name="L" unicode="L" horiz-adv-x="628" 
d="M63 0v700h145v-572h383v-128h-528z" />
    <glyph glyph-name="M" unicode="M" horiz-adv-x="882" 
d="M63 0v700h186l192 -378l192 378h186v-700h-137v515l-243 -465l-242 467v-517h-134z" />
    <glyph glyph-name="N" unicode="N" horiz-adv-x="749" 
d="M63 0v700h138l348 -452v452h136v-700h-128l-357 468v-468h-137z" />
    <glyph glyph-name="O" unicode="O" horiz-adv-x="813" 
d="M406 -11c-52 0 -100.333 9.16699 -145 27.5s-83.834 44 -117.501 77s-60 71.333 -79 115s-28.5 90.834 -28.5 141.501s9.5 97.834 28.5 141.501s45.333 82 79 115s72.834 58.667 117.501 77s93 27.5 145 27.5s100.5 -9.16699 145.5 -27.5s84.333 -44 118 -77
s59.834 -71.333 78.501 -115s28 -90.834 28 -141.501s-9.33301 -97.834 -28 -141.501s-44.834 -82 -78.501 -115s-73 -58.667 -118 -77s-93.5 -27.5 -145.5 -27.5zM406 122c32 0 61.333 5.83203 88 17.499s50 27.667 70 48s35.667 44.5 47 72.5s17 58 17 90
c0 32.667 -5.66699 62.834 -17 90.501s-27 51.667 -47 72s-43.333 36.333 -70 48s-56 17.5 -88 17.5c-31.333 0 -60.333 -5.83301 -87 -17.5s-50 -27.667 -70 -48s-35.667 -44.333 -47 -72s-17 -57.5 -17 -89.5c0 -32.667 5.66699 -63 17 -91s27 -52.167 47 -72.5
s43.333 -36.333 70 -48s55.667 -17.5 87 -17.5z" />
    <glyph glyph-name="P" unicode="P" horiz-adv-x="681" 
d="M63 0l-0.000976562 700.001h351c46 0 86.5 -9.33301 121.5 -28s62.5 -44.5 82.5 -77.5s30 -71.167 30 -114.5c0 -41.333 -10 -78.333 -30 -111s-47.667 -58.334 -83 -77.001s-75.666 -28 -120.999 -28h-206v-264h-145zM207.999 384.001l190 0.000976562
c31.333 0 56.5 8.66699 75.5 26s28.5 40.333 28.5 69c0 29.333 -9.5 52.666 -28.5 69.999s-44.167 26 -75.5 26h-190v-191z" />
    <glyph glyph-name="Q" unicode="Q" horiz-adv-x="813" 
d="M613 -34l-47.001 58c-24 -10.667 -49.333 -19.167 -76 -25.5s-54.667 -9.5 -84 -9.5c-52 0 -100.333 9.16699 -145 27.5s-83.834 44 -117.501 77s-60 71.333 -79 115s-28.5 90.834 -28.5 141.501s9.5 97.834 28.5 141.501s45.333 82 79 115s72.834 58.667 117.501 77
s93 27.5 145 27.5s100.5 -9.16699 145.5 -27.5s84.333 -44 118 -77s59.834 -71.333 78.501 -115s28 -90.834 28 -141.501c0 -50 -9.5 -96.833 -28.5 -140.5s-44.833 -81.834 -77.5 -114.501l70 -87zM405.999 122c13.333 0 25.833 1.16699 37.5 3.5
s22.834 5.83301 33.501 10.5l-75 94l126 42l52 -64c15.333 19.333 27.166 41 35.499 65s12.5 49.667 12.5 77c0 32.667 -5.66699 62.834 -17 90.501s-27 51.667 -47 72s-43.333 36.333 -70 48s-56 17.5 -88 17.5c-31.333 0 -60.5 -5.83301 -87.5 -17.5
s-50.333 -27.667 -70 -48s-35.167 -44.333 -46.5 -72s-17 -57.834 -17 -90.501c0 -32 5.66699 -62 17 -90s26.833 -52.167 46.5 -72.5s43 -36.333 70 -48s56.167 -17.5 87.5 -17.5z" />
    <glyph glyph-name="R" unicode="R" horiz-adv-x="679" 
d="M63 0l0.00195312 700.001h342c47.333 0 89.166 -9.16699 125.499 -27.5s64.666 -43.833 84.999 -76.5s30.5 -70.334 30.5 -113.001c0 -44.667 -12.333 -84 -37 -118s-57.667 -59.333 -99 -76l155 -289h-162l-137 268h-158v-268h-145zM208.002 387.001h184
c32.667 0 58.834 8.66699 78.501 26s29.5 40 29.5 68s-9.83301 50.667 -29.5 68s-45.834 26 -78.501 26h-184v-188z" />
    <glyph glyph-name="S" unicode="S" horiz-adv-x="631" 
d="M313 -10c-56.667 0 -112.001 10.501 -166.001 31.501s-102 50.833 -144 89.5l83 104c40.667 -36 79.834 -62 117.501 -78s77.5 -24 119.5 -24c29.333 0 54.666 3.5 75.999 10.5s37.833 17.167 49.5 30.5s17.5 29 17.5 47c0 24 -8.66699 42.5 -26 55.5
s-47 23.167 -89 30.5l-139 24c-59.333 10 -104.5 31 -135.5 63s-46.5 73.333 -46.5 124c0 43.333 11.167 81 33.5 113s54 56.5 95 73.5s89.833 25.5 146.5 25.5c51.333 0 102.5 -8.66699 153.5 -26s96.167 -41.333 135.5 -72l-78 -108c-73.333 56 -147 84 -221 84
c-26 0 -48.667 -3.33301 -68 -10s-34.166 -15.834 -44.499 -27.501s-15.5 -25.5 -15.5 -41.5c0 -21.333 7.66699 -37.833 23 -49.5s41 -20.5 77 -26.5l132 -22c70 -11.333 122.333 -33.5 157 -66.5s52 -76.5 52 -130.5c0 -45.333 -12 -84.833 -36 -118.5
s-58.167 -59.667 -102.5 -78s-96.5 -27.5 -156.5 -27.5z" />
    <glyph glyph-name="T" unicode="T" horiz-adv-x="652" 
d="M254 0v572h-236v128h616v-128h-235v-572h-145z" />
    <glyph glyph-name="U" unicode="U" horiz-adv-x="725" 
d="M362 -10c-63.333 0 -118.171 12.667 -164.504 38s-82.166 61.5 -107.499 108.5s-38 102.167 -38 165.5v398h145v-398c0 -36 6.83301 -67.5 20.5 -94.5s33 -47.667 58 -62s54.167 -21.5 87.5 -21.5s62.333 7.16699 87 21.5s43.834 35 57.501 62s20.5 58.5 20.5 94.5v398
h144v-398c0 -62.667 -12.667 -117.5 -38 -164.5s-61.166 -83.333 -107.499 -109s-101.166 -38.5 -164.499 -38.5z" />
    <glyph glyph-name="V" unicode="V" horiz-adv-x="732" 
d="M280 0l-284 700h157l214 -551l219 551h150l-288 -700h-168z" />
    <glyph glyph-name="W" unicode="W" horiz-adv-x="944" 
d="M181 0l-155 700h149l95 -474l136 474h137l136 -473l95 473h144l-154 -700h-153l-138 488l-140 -488h-152z" />
    <glyph glyph-name="X" unicode="X" horiz-adv-x="700" 
d="M-3 0l267 362l-253 338h173l166 -230l165 230h167l-249 -338l270 -362h-173l-183 254l-183 -254h-167z" />
    <glyph glyph-name="Y" unicode="Y" horiz-adv-x="706" 
d="M280 0v268l-286 432h167l196 -304l197 304h158l-287 -433v-267h-145z" />
    <glyph glyph-name="Z" unicode="Z" horiz-adv-x="617" 
d="M21 0v99l386 475h-383v126h572v-99l-386 -475h390v-126h-579z" />
    <glyph glyph-name="bracketleft" unicode="[" horiz-adv-x="393" 
d="M56 -213v913h299v-107h-169v-699h169v-107h-299z" />
    <glyph glyph-name="backslash" unicode="\" horiz-adv-x="520" 
d="M439 -208l-408 908h138l408 -908h-138z" />
    <glyph glyph-name="bracketright" unicode="]" horiz-adv-x="393" 
d="M337 700v-913h-299v107h169v699h-169v107h299z" />
    <glyph glyph-name="asciicircum" unicode="^" horiz-adv-x="582" 
d="M57 350l178 350h112l178 -350h-109l-125 249l-125 -249h-109z" />
    <glyph glyph-name="underscore" unicode="_" horiz-adv-x="494" 
d="M-1 -176v96h496v-96h-496z" />
    <glyph glyph-name="grave" unicode="`" 
d="M273 608l-135 130h158l88 -130h-111z" />
    <glyph glyph-name="a" unicode="a" horiz-adv-x="555" 
d="M220 -9c-37.333 0 -70.334 6.83301 -99.001 20.5s-51 32.5 -67 56.5s-24 51.667 -24 83c0 50 18.833 88.833 56.5 116.5s89.5 41.5 155.5 41.5c45.333 0 88 -7 128 -21v38c0 30 -9.33301 52.667 -28 68s-46 23 -82 23c-22 0 -45.667 -3.5 -71 -10.5
s-54.666 -17.833 -87.999 -32.5l-50 101c41.333 18.667 80.833 32.667 118.5 42s75.5 14 113.5 14c70 0 124.5 -16.833 163.5 -50.5s58.5 -81.167 58.5 -142.5v-338h-135v37c-21.333 -16 -44.333 -27.667 -69 -35s-51.667 -11 -81 -11zM159.999 154
c0 -20 8.66797 -35.833 26.001 -47.5s40.333 -17.5 69 -17.5c22.667 0 43.667 2.83301 63 8.5s36.666 14.167 51.999 25.5v76c-16.667 6.66699 -34 11.667 -52 15s-37.333 5 -58 5c-31.333 0 -55.833 -5.83301 -73.5 -17.5s-26.5 -27.5 -26.5 -47.5z" />
    <glyph glyph-name="b" unicode="b" horiz-adv-x="631" 
d="M54 0l0.000976562 700l137 23v-244c41.333 32.667 90 49 146 49c49.333 0 94 -12 134 -36s71.833 -56.167 95.5 -96.5s35.5 -85.5 35.5 -135.5s-12 -95.167 -36 -135.5s-56.333 -72.333 -97 -96s-86 -35.5 -136 -35.5c-26 0 -51.333 3.66699 -76 11
s-47.334 18 -68.001 32v-36h-135zM315.001 109c28.667 0 54.498 6.66602 77.498 19.999s41.167 31.333 54.5 54s20 48.334 20 77.001s-6.66699 54.5 -20 77.5s-31.5 41 -54.5 54s-48.833 19.5 -77.5 19.5c-25.333 0 -48.5 -4.16699 -69.5 -12.5s-39.167 -20.833 -54.5 -37.5
v-203c14.667 -15.333 32.834 -27.333 54.501 -36s44.834 -13 69.501 -13z" />
    <glyph glyph-name="c" unicode="c" horiz-adv-x="532" 
d="M303 -10c-51.333 0 -97.665 11.834 -138.998 35.501s-74 56 -98 97s-36 86.833 -36 137.5c0 51.333 12 97.333 36 138s56.667 73 98 97s87.666 36 138.999 36c41.333 0 80.833 -8 118.5 -24s70.167 -39 97.5 -69l-84 -89c-19.333 21.333 -39.5 37.166 -60.5 47.499
s-43.833 15.5 -68.5 15.5c-26.667 0 -50.5 -6.66699 -71.5 -20s-37.667 -31.333 -50 -54s-18.5 -48.667 -18.5 -78c0 -28 6.16699 -53.5 18.5 -76.5s29.5 -41 51.5 -54s46.333 -19.5 73 -19.5c23.333 0 45.166 4.83301 65.499 14.5s39.833 24.167 58.5 43.5l82 -86
c-26.667 -28.667 -58.667 -51.167 -96 -67.5s-76 -24.5 -116 -24.5z" />
    <glyph glyph-name="d" unicode="d" horiz-adv-x="631" 
d="M295 -7c-49.333 0 -94.002 12 -134.002 36s-71.833 56.167 -95.5 96.5s-35.5 85.5 -35.5 135.5s11.833 95.167 35.5 135.5s55.834 72.333 96.501 96s86.334 35.5 137.001 35.5c26 0 51 -3.5 75 -10.5s46.333 -17.167 67 -30.5v213l137 23v-723h-135v43
c-42.667 -33.333 -92 -50 -148 -50zM316.998 110c25.333 0 48.499 4.16797 69.499 12.501s39.167 20.833 54.5 37.5v203c-15.333 15.333 -33.666 27.333 -54.999 36s-44.333 13 -69 13c-28.667 0 -54.5 -6.5 -77.5 -19.5s-41.167 -31 -54.5 -54s-20 -48.833 -20 -77.5
s6.66699 -54.334 20 -77.001s31.5 -40.667 54.5 -54s48.833 -20 77.5 -20z" />
    <glyph glyph-name="e" unicode="e" horiz-adv-x="586" 
d="M309 -10c-52 0 -99.167 12 -141.5 36s-75.833 56.333 -100.5 97s-37 86.334 -37 137.001s11.833 96.334 35.5 137.001s55.834 73 96.501 97s86 36 136 36s94.333 -12.333 133 -37s69.167 -58 91.5 -100s33.5 -89.667 33.5 -143v-36h-386
c6 -20.667 15.833 -39.334 29.5 -56.001s30.667 -29.667 51 -39s42.166 -14 65.499 -14s44.833 3.66699 64.5 11s36.5 17.666 50.5 30.999l90 -82c-32 -26 -64.833 -45 -98.5 -57s-71.5 -18 -113.5 -18zM168 312h252.999c-4.66699 20.667 -13.167 38.834 -25.5 54.501
s-27 28 -44 37s-35.833 13.5 -56.5 13.5c-21.333 0 -40.666 -4.33301 -57.999 -13s-31.833 -20.834 -43.5 -36.501s-20.167 -34.167 -25.5 -55.5z" />
    <glyph glyph-name="f" unicode="f" horiz-adv-x="431" 
d="M134 0l-0.00195312 406.999h-116v114h116v50c0 58.667 17 103.5 51 134.5s83 46.5 147 46.5c14 0 28.333 -0.666992 43 -2s27.334 -3.66602 38.001 -6.99902v-115c-12.667 2.66699 -23.667 4.66699 -33 6s-19.666 2 -30.999 2c-26 0 -45.5 -5.5 -58.5 -16.5
s-19.5 -28.167 -19.5 -51.5v-47h142v-114h-142v-407h-137z" />
    <glyph glyph-name="g" unicode="g" horiz-adv-x="627" 
d="M316 -214c-40 0 -78.666 4.16602 -115.999 12.499s-71 20.166 -101 35.499l48 106c28.667 -14 56.667 -24.333 84 -31s54.666 -10 81.999 -10c40.667 0 71.5 8.66699 92.5 26s31.5 43.333 31.5 78v41c-42.667 -31.333 -90.334 -47 -143.001 -47
c-49.333 0 -93.833 11.833 -133.5 35.5s-71.334 55.834 -95.001 96.501s-35.5 85.667 -35.5 135s11.833 94 35.5 134s55.834 71.833 96.501 95.5s86 35.5 136 35.5c25.333 0 50 -3.66699 74 -11s46.333 -17.666 67 -30.999v34h135v-520
c0 -68.667 -22.167 -121.667 -66.5 -159s-108.166 -56 -191.499 -56zM315.001 112.999c25.333 0 48.333 4.16895 69 12.502s38.334 20.166 53.001 35.499v204c-14.667 14.667 -32.5 26.167 -53.5 34.5s-43.5 12.5 -67.5 12.5c-28.667 0 -54.334 -6.5 -77.001 -19.5
s-40.667 -30.667 -54 -53s-20 -47.5 -20 -75.5c0 -28.667 6.5 -54.334 19.5 -77.001s31 -40.667 54 -54s48.5 -20 76.5 -20z" />
    <glyph glyph-name="h" unicode="h" horiz-adv-x="593" 
d="M54 0l-0.000976562 700l137 30v-252c39.333 35.333 88 53 146 53c40.667 0 76.5 -8.83301 107.5 -26.5s55.167 -42 72.5 -73s26 -67.167 26 -108.5v-323h-137v303c0 34 -9.66699 60.833 -29 80.5s-45.666 29.5 -78.999 29.5c-23.333 0 -44 -4.5 -62 -13.5
s-33 -21.833 -45 -38.5v-361h-137z" />
    <glyph glyph-name="i" unicode="i" horiz-adv-x="244" 
d="M54 0v521h137v-521h-137zM122 583c-21.333 0 -39.666 7.66699 -54.999 23s-23 33.666 -23 54.999c0 22 7.66699 40.5 23 55.5s33.666 22.5 54.999 22.5c22 0 40.5 -7.5 55.5 -22.5s22.5 -33.5 22.5 -55.5c0 -21.333 -7.5 -39.666 -22.5 -54.999s-33.5 -23 -55.5 -23z" />
    <glyph glyph-name="j" unicode="j" horiz-adv-x="244" 
d="M122 583c-21.333 0 -39.666 7.66699 -54.999 23s-23 33.666 -23 54.999c0 22 7.66699 40.5 23 55.5s33.666 22.5 54.999 22.5c22 0 40.5 -7.5 55.5 -22.5s22.5 -33.5 22.5 -55.5c0 -21.333 -7.5 -39.666 -22.5 -54.999s-33.5 -23 -55.5 -23zM22 -214
c-12.667 0 -25.667 0.832031 -39 2.49902s-24 3.83398 -32 6.50098v105c12 -2.66699 26.667 -4 44 -4c20 0 34.833 4.16699 44.5 12.5s14.5 21.833 14.5 40.5v572h137v-580c0 -49.333 -14.667 -87.5 -44 -114.5s-71 -40.5 -125 -40.5z" />
    <glyph glyph-name="k" unicode="k" horiz-adv-x="568" 
d="M54 0v700l137 23v-421l225 219h155l-246 -239l261 -282h-175l-220 238v-238h-137z" />
    <glyph glyph-name="l" unicode="l" horiz-adv-x="244" 
d="M54 0v700l137 23v-723h-137z" />
    <glyph glyph-name="m" unicode="m" horiz-adv-x="905" 
d="M54 0v521.002h137v-40c37.333 33.333 82.666 50 135.999 50c34 0 64.333 -6.83301 91 -20.5s48.667 -32.834 66 -57.501c21.333 25.333 46.5 44.666 75.5 57.999s61.167 20 96.5 20c39.333 0 73.833 -8.83301 103.5 -26.5s53 -42 70 -73s25.5 -67.167 25.5 -108.5v-323
h-136v303c0 34 -9 60.833 -27 80.5s-42 29.5 -72 29.5c-20.667 0 -39.5 -4.33301 -56.5 -13s-31.5 -21.667 -43.5 -39l2 -18c0.666992 -6 1 -12.667 1 -20v-323h-137v303c0 34 -8.83301 60.833 -26.5 80.5s-41.5 29.5 -71.5 29.5c-20.667 0 -39.167 -4 -55.5 -12
s-30.166 -20 -41.499 -36v-365h-137z" />
    <glyph glyph-name="n" unicode="n" horiz-adv-x="593" 
d="M54 0l-0.000976562 521h137v-43c39.333 35.333 88 53 146 53c40.667 0 76.5 -8.83301 107.5 -26.5s55.167 -42 72.5 -73s26 -67.167 26 -108.5v-323h-137v303c0 34 -9.66699 60.833 -29 80.5s-45.666 29.5 -78.999 29.5c-23.333 0 -44 -4.5 -62 -13.5
s-33 -21.833 -45 -38.5v-361h-137z" />
    <glyph glyph-name="o" unicode="o" horiz-adv-x="616" 
d="M308 -10c-52 0 -98.998 12 -140.998 36s-75.333 56.333 -100 97s-37 86.334 -37 137.001s12.167 96.5 36.5 137.5s57.666 73.5 99.999 97.5s89.5 36 141.5 36s99.167 -12 141.5 -36s75.666 -56.5 99.999 -97.5s36.5 -86.833 36.5 -137.5s-12.167 -96.334 -36.5 -137.001
s-57.5 -73 -99.5 -97s-89.333 -36 -142 -36zM308.002 109c27.333 0 51.833 6.66699 73.5 20s39 31.5 52 54.5s19.5 48.5 19.5 76.5c0 28.667 -6.5 54.334 -19.5 77.001s-30.333 40.834 -52 54.501s-46.167 20.5 -73.5 20.5c-26.667 0 -51 -6.83301 -73 -20.5
s-39.333 -31.834 -52 -54.501s-19 -48.334 -19 -77.001c0 -28 6.33301 -53.5 19 -76.5s30 -41.167 52 -54.5s46.333 -20 73 -20z" />
    <glyph glyph-name="p" unicode="p" horiz-adv-x="631" 
d="M54 -204v725h135v-43c42.667 33.333 92 50 148 50c49.333 0 94 -12 134 -36s71.833 -56.167 95.5 -96.5s35.5 -85.5 35.5 -135.5s-12 -95.167 -36 -135.5s-56.333 -72.333 -97 -96s-86 -35.5 -136 -35.5c-26 0 -51 3.5 -75 10.5s-46.333 17.167 -67 30.5v-238h-137z
M315 109c28.667 0 54.498 6.66602 77.498 19.999s41.167 31.333 54.5 54s20 48.334 20 77.001s-6.66699 54.5 -20 77.5s-31.5 41 -54.5 54s-48.833 19.5 -77.5 19.5c-25.333 0 -48.5 -4.16699 -69.5 -12.5s-39.167 -20.833 -54.5 -37.5v-203
c14.667 -15.333 32.834 -27.333 54.501 -36s44.834 -13 69.501 -13z" />
    <glyph glyph-name="q" unicode="q" horiz-adv-x="631" 
d="M441 -204l-0.00195312 244.999c-42 -32 -90.667 -48 -146 -48c-49.333 0 -94 12 -134 36s-71.833 56.167 -95.5 96.5s-35.5 85.5 -35.5 135.5s11.833 95.167 35.5 135.5s55.834 72.333 96.501 96s86.334 35.5 137.001 35.5c26.667 0 52.167 -3.66699 76.5 -11
s46.833 -17.666 67.5 -30.999v35h135v-725h-137zM316.998 109.999c25.333 0 48.499 4.16797 69.499 12.501s39.167 20.833 54.5 37.5v203c-15.333 15.333 -33.666 27.333 -54.999 36s-44.333 13 -69 13c-28.667 0 -54.5 -6.5 -77.5 -19.5s-41.167 -31 -54.5 -54
s-20 -48.833 -20 -77.5s6.66699 -54.334 20 -77.001s31.5 -40.667 54.5 -54s48.833 -20 77.5 -20z" />
    <glyph glyph-name="r" unicode="r" horiz-adv-x="408" 
d="M54 0l0.000976562 521h137v-58c16.667 22.667 36.667 40 60 52s49.666 18 78.999 18c25.333 -0.666992 44.333 -4.66699 57 -12v-120c-10 4.66699 -21 8.16699 -33 10.5s-24.333 3.5 -37 3.5c-26.667 0 -51 -6.66699 -73 -20s-39.667 -32.333 -53 -57v-338h-137z" />
    <glyph glyph-name="s" unicode="s" horiz-adv-x="491" 
d="M249 -10c-48 0 -92.333 6.16797 -133 18.501s-76 30.166 -106 53.499l68 91c30 -20 58.833 -35 86.5 -45s55.167 -15 82.5 -15c30.667 0 55.167 5.16699 73.5 15.5s27.5 23.833 27.5 40.5c0 13.333 -5.16699 24 -15.5 32s-26.833 13.667 -49.5 17l-100 15
c-52 8 -91.333 24.833 -118 50.5s-40 59.5 -40 101.5c0 34 8.83301 63.167 26.5 87.5s42.667 43.333 75 57s70.833 20.5 115.5 20.5c38 0 75.167 -5.33301 111.5 -16s70.5 -27 102.5 -49l-66 -89c-28.667 18 -56 31 -82 39s-52.333 12 -79 12
c-24.667 0 -44.5 -4.66699 -59.5 -14s-22.5 -21.666 -22.5 -36.999c0 -14 5.33301 -25 16 -33s29 -13.667 55 -17l99 -15c52 -7.33301 91.667 -23.833 119 -49.5s41 -58.834 41 -99.501c0 -33.333 -10 -62.833 -30 -88.5s-47 -46 -81 -61s-73 -22.5 -117 -22.5z" />
    <glyph glyph-name="t" unicode="t" horiz-adv-x="424" 
d="M301 -8c-58 0 -101.834 13.167 -131.501 39.5s-44.5 64.833 -44.5 115.5v260h-107v114h107v133l137 31v-164h149v-114h-149v-232c0 -24 5.33301 -41.167 16 -51.5s29.334 -15.5 56.001 -15.5c13.333 0 25.5 0.833008 36.5 2.5s23.167 4.83398 36.5 9.50098v-113
c-14 -4.66699 -31.5 -8.33398 -52.5 -11.001s-38.833 -4 -53.5 -4z" />
    <glyph glyph-name="u" unicode="u" horiz-adv-x="593" 
d="M256 -10c-40 0 -75.5 8.83301 -106.5 26.5s-55.333 42.167 -73 73.5s-26.5 67.333 -26.5 108v323h137v-303c0 -33.333 9.83301 -60 29.5 -80s46.167 -30 79.5 -30c22.667 0 43.167 4.5 61.5 13.5s33.5 21.833 45.5 38.5v361h137v-521h-137v42
c-40 -34.667 -89 -52 -147 -52z" />
    <glyph glyph-name="v" unicode="v" horiz-adv-x="580" 
d="M223 0l-223 521h149l143 -347l142 347h146l-224 -521h-133z" />
    <glyph glyph-name="w" unicode="w" horiz-adv-x="772" 
d="M153 0l-143 521h130l86 -336l104 336h115l103 -337l86 337h128l-144 -521h-131l-101 333l-101 -333h-132z" />
    <glyph glyph-name="x" unicode="x" horiz-adv-x="555" 
d="M-2 0l200 265l-195 256h159l115 -155l114 155h154l-192 -254l204 -267h-160l-123 166l-123 -166h-153z" />
    <glyph glyph-name="y" unicode="y" horiz-adv-x="577" 
d="M105 -215c-12 0 -23.5 0.499023 -34.5 1.49902s-20.167 2.16699 -27.5 3.5v118c13.333 -2.66699 29.333 -4 48 -4c50 0 84.667 23.667 104 71l8 20l-203 526h151l130 -355l147 355h148l-240 -563c-18 -42 -37.667 -75.667 -59 -101s-45.833 -43.666 -73.5 -54.999
s-60.5 -17 -98.5 -17z" />
    <glyph glyph-name="z" unicode="z" horiz-adv-x="499" 
d="M27 0v97l262 309h-260v115h435v-97l-262 -309h269v-115h-444z" />
    <glyph glyph-name="braceleft" unicode="{" horiz-adv-x="429" 
d="M290 -218c-44.667 0 -81.334 9 -110.001 27s-47.334 42.667 -56.001 74s-6 67 8 107l34 91c12 32.667 11.833 59.834 -0.5 81.501s-34.5 32.5 -66.5 32.5h-83v102h83c32 0 54.167 10.833 66.5 32.5s12.5 48.834 0.5 81.501l-34 91c-14 40 -16.667 75.667 -8 107
s27.334 56 56.001 74s65.334 27 110.001 27c17.333 0 34 -1.33301 50 -4s32.333 -7 49 -13l-20 -98c-10 3.33301 -20.167 6 -30.5 8s-21.166 3 -32.499 3c-26 -0.666992 -44 -10.334 -54 -29.001s-10 -42 0 -70l37 -100c13.333 -38 10.666 -72 -8.00098 -102
s-48.667 -49.667 -90 -59c41.333 -9.33301 71.333 -29 90 -59s21.334 -64 8.00098 -102l-37 -100c-10 -28 -10 -51.333 0 -70s28 -28.334 54 -29.001c11.333 0 22.166 1 32.499 3s20.5 4.66699 30.5 8l20 -98c-16.667 -6 -33 -10.333 -49 -13s-32.667 -4 -50 -4z" />
    <glyph glyph-name="bar" unicode="|" horiz-adv-x="333" 
d="M105 -208v908h123v-908h-123z" />
    <glyph glyph-name="braceright" unicode="}" horiz-adv-x="429" 
d="M139 711c44.667 0 81.334 -9 110.001 -27s47.334 -42.667 56.001 -74s6 -67 -8 -107l-34 -91c-12 -32.667 -11.833 -59.834 0.5 -81.501s34.5 -32.5 66.5 -32.5h83v-102h-83c-32 0 -54.167 -10.833 -66.5 -32.5s-12.5 -48.834 -0.5 -81.501l34 -91
c14 -40 16.667 -75.667 8 -107s-27.334 -56 -56.001 -74s-65.334 -27 -110.001 -27c-17.333 0 -34 1.33301 -50 4s-32.333 7 -49 13l20 98c10 -3.33301 20.167 -6 30.5 -8s21.166 -3 32.499 -3c26 0.666992 44 10.334 54 29.001s10 42 0 70l-37 100
c-13.333 38 -10.666 72 8.00098 102s48.667 49.667 90 59c-41.333 9.33301 -71.333 29 -90 59s-21.334 64 -8.00098 102l37 100c10 28 10 51.333 0 70s-28 28.334 -54 29.001c-11.333 0 -22.166 -1 -32.499 -3s-20.5 -4.66699 -30.5 -8l-20 98c16.667 6 33 10.333 49 13
s32.667 4 50 4z" />
    <glyph glyph-name="asciitilde" unicode="~" horiz-adv-x="594" 
d="M123 285l-92.002 11c6 54.667 21.167 96.667 45.5 126s55.833 44 94.5 44c14.667 0 29.834 -2 45.501 -6s31.5 -10.333 47.5 -19l85 -42c14 -6.66699 25.667 -11.5 35 -14.5s17.333 -4.5 24 -4.5c35.333 0 56.333 26.333 63 79l92 -11
c-6 -54.667 -21.333 -96.667 -46 -126s-56.334 -44 -95.001 -44c-14 0 -29 2 -45 6s-32 10.333 -48 19l-85 42c-15.333 7.33301 -27.166 12.333 -35.499 15s-16.166 4 -23.499 4c-36 0 -56.667 -26.333 -62 -79z" />
    <glyph glyph-name="uni00A0" unicode="&#xa0;" horiz-adv-x="201" 
 />
    <glyph glyph-name="exclamdown" unicode="&#xa1;" horiz-adv-x="241" 
d="M173 287l17 -495h-139l17 495h105zM121 507c22 0 41 -8 57 -24s24 -35 24 -57c0 -22.667 -8 -42 -24 -58s-35 -24 -57 -24c-22.667 0 -42 8 -58 24s-24 35.333 -24 58c0 22 8 41 24 57s35.333 24 58 24z" />
    <glyph glyph-name="cent" unicode="&#xa2;" horiz-adv-x="532" 
d="M272 -112l-0.000976562 103.998c-45.333 4.66699 -86.5 19.334 -123.5 44.001s-66 56.5 -87 95.5s-31.5 81.833 -31.5 128.5c0 48 10.5 91.333 31.5 130s50 70.334 87 95.001s78.167 39.667 123.5 45v90h62v-91c36 -4 70 -13.667 102 -29s59.667 -36 83 -62l-84 -89
c-15.333 17.333 -31.333 31 -48 41s-34.334 16.333 -53.001 19v-297c18 2.66699 35.333 8.83398 52 18.501s32.334 22.167 47.001 37.5l82 -86c-23.333 -24.667 -50.666 -44.834 -81.999 -60.501s-64.333 -25.5 -99 -29.5v-104h-62zM165.999 259.998
c0 -24 4.5 -46.1689 13.5 -66.502s21.5 -37.166 37.5 -50.499s34.333 -22.666 55 -27.999v292c-20.667 -4.66699 -39 -14.167 -55 -28.5s-28.5 -31.5 -37.5 -51.5s-13.5 -42.333 -13.5 -67z" />
    <glyph glyph-name="sterling" unicode="&#xa3;" horiz-adv-x="648" 
d="M471 -26c-11.333 0 -22.999 0.833984 -34.999 2.50098s-24.667 3.83398 -38 6.50098l-178 43c-6.66699 1.33301 -13.334 2.33301 -20.001 3s-12.667 1 -18 1c-20 0 -37 -5.16699 -51 -15.5s-26.667 -27.166 -38 -50.499l-103 65c18.667 34 40.167 60 64.5 78
s52.166 28.667 83.499 32c12 10.667 18 25 18 43c0 1.33301 -0.166992 3.33301 -0.5 6s-1.16602 7.16699 -2.49902 13.5s-3.16602 16.166 -5.49902 29.499s-5.83301 31.666 -10.5 54.999h-97v89h80c-4 20.667 -7 37.5 -9 50.5s-3.33301 23.833 -4 32.5s-1 16 -1 22
c0 46.667 9.83301 87.167 29.5 121.5s47.667 61 84 80s79.166 28.5 128.499 28.5c66 0 120.333 -15.167 163 -45.5s72.667 -75.833 90 -136.5l-113 -36c-11.333 34.667 -28 61 -50 79s-50.333 27 -85 27c-38.667 0 -68.334 -10.5 -89.001 -31.5s-31 -49.833 -31 -86.5
c0 -4.66699 0.333008 -10.334 1 -17.001s2.33398 -16.667 5.00098 -30s6 -32.666 10 -57.999h189v-89h-170l5 -33.5c1.33301 -9 2.5 -16.167 3.5 -21.5s1.66699 -9.83301 2 -13.5s0.5 -6.83398 0.5 -9.50098c0 -34 -9.66699 -60.667 -29 -80l164 -39
c7.33301 -2 14.333 -3.33301 21 -4s13 -1 19 -1c37.333 0 66 19.667 86 59l100 -60c-40 -72.667 -96.333 -109 -169 -109z" />
    <glyph glyph-name="uni00A4" unicode="&#xa4;" horiz-adv-x="686" 
d="M94 45l-67.001 66l95 96c-15.333 21.333 -27.5 45.333 -36.5 72s-13.5 54.667 -13.5 84c0 30 4.5 58.167 13.5 84.5s21.167 50.166 36.5 71.499l-95 98l66 66l98 -98c21.333 14.667 45 25.834 71 33.501s53 11.5 81 11.5c28.667 0 56 -4 82 -12s49.667 -19.333 71 -34
l98 98l65 -65l-96 -97c16 -21.333 28.5 -45.333 37.5 -72s13.5 -55 13.5 -85c0 -29.333 -4.5 -57.5 -13.5 -84.5s-21.5 -51.167 -37.5 -72.5l97 -96l-65 -66l-99 98c-21.333 -14.667 -45 -26 -71 -34s-53.333 -12 -82 -12c-28 0 -55.167 4 -81.5 12
s-50.166 19.333 -71.499 34zM342.999 211c26.667 0 51 6.83301 73 20.5s39.5 32 52.5 55s19.5 48.5 19.5 76.5c0 28.667 -6.5 54.334 -19.5 77.001s-30.5 40.834 -52.5 54.501s-46.333 20.5 -73 20.5s-50.834 -6.83301 -72.501 -20.5s-39 -31.834 -52 -54.501
s-19.5 -48.334 -19.5 -77.001c0 -28 6.5 -53.5 19.5 -76.5s30.333 -41.333 52 -55s45.834 -20.5 72.501 -20.5z" />
    <glyph glyph-name="yen" unicode="&#xa5;" horiz-adv-x="710" 
d="M286 0v131h-180v73h180v60h-180v73h139l-243 363h167l194 -304l187 304h159l-236 -363h131v-73h-173v-60h173v-73h-173v-131h-145z" />
    <glyph glyph-name="uni00A6" unicode="&#xa6;" horiz-adv-x="337" 
d="M105 288v412h127v-412h-127zM105 -208v412h127v-412h-127z" />
    <glyph glyph-name="section" unicode="&#xa7;" horiz-adv-x="579" 
d="M279 -54c-35.333 0 -70.001 4.83301 -104.001 14.5s-66.333 23.5 -97 41.5l53 82c56.667 -33.333 106.667 -49.666 150 -48.999c22.667 0 40.667 5 54 15s20 23.333 20 40c0 13.333 -4.5 24.5 -13.5 33.5s-24.167 17.167 -45.5 24.5l-106 35
c-56 18.667 -95.333 39.167 -118 61.5s-34 52.5 -34 90.5c0 30.667 8.66699 57.5 26 80.5s40.666 40.167 69.999 51.5c-22.667 22.667 -34 51.667 -34 87c0 47.333 18.333 85.166 55 113.499s85.334 42.5 146.001 42.5c34 0 68 -4.83301 102 -14.5s66.667 -23.5 98 -41.5
l-52 -82c-56 32.667 -106 49 -150 49c-23.333 0 -41.666 -4.83301 -54.999 -14.5s-20 -23.5 -20 -41.5c0 -12.667 4.66699 -23.5 14 -32.5s24.666 -17.167 45.999 -24.5l104 -35c56.667 -18.667 96.334 -39.167 119.001 -61.5s34 -52.833 34 -91.5
c0 -30.667 -8.5 -57.5 -25.5 -80.5s-40.5 -40.5 -70.5 -52.5c22 -22 33 -51 33 -87c0 -46 -18.167 -83.167 -54.5 -111.5s-84.5 -42.5 -144.5 -42.5zM356.999 239c21.333 3.33301 38.334 10.667 51.001 22s19 26 19 44c0 15.333 -5.33301 28.5 -16 39.5
s-28.334 20.5 -53.001 28.5l-118 37l-9 3.5c-2.66699 1 -5.66699 1.83301 -9 2.5c-22 -2.66699 -39.167 -9.83398 -51.5 -21.501s-18.5 -26.5 -18.5 -44.5c0 -15.333 5.33301 -28.166 16 -38.499s28 -19.833 52 -28.5l119 -38c2.66699 -0.666992 5.66699 -1.5 9 -2.5
s6.33301 -2.16699 9 -3.5z" />
    <glyph glyph-name="dieresis" unicode="&#xa8;" 
d="M188 605c-20 0 -37 6.66699 -51 20s-21 30.666 -21 51.999c0 20.667 7 37.834 21 51.501s31 20.5 51 20.5c20.667 0 37.834 -6.83301 51.501 -20.5s20.5 -30.834 20.5 -51.501c0 -21.333 -6.83301 -38.666 -20.5 -51.999s-30.834 -20 -51.501 -20zM412 605
c-20 0 -37 6.66699 -51 20s-21 30.666 -21 51.999c0 20.667 7 37.834 21 51.501s31 20.5 51 20.5c20.667 0 37.834 -6.83301 51.501 -20.5s20.5 -30.834 20.5 -51.501c0 -21.333 -6.83301 -38.666 -20.5 -51.999s-30.834 -20 -51.501 -20z" />
    <glyph glyph-name="copyright" unicode="&#xa9;" horiz-adv-x="789" 
d="M402 161c-36.667 0 -69.667 8.49805 -99 25.498s-52.5 39.833 -69.5 68.5s-25.5 60.667 -25.5 96c0 36 8.5 68.333 25.5 97s40.167 51.334 69.5 68.001s62.333 25 99 25c30 0 58.5 -5.83301 85.5 -17.5s49.833 -28.167 68.5 -49.5l-67 -69
c-12.667 15.333 -25.834 26.166 -39.501 32.499s-28.5 9.5 -44.5 9.5c-16.667 0 -31.667 -4.16699 -45 -12.5s-24 -19.666 -32 -33.999s-12 -30.833 -12 -49.5c0 -18 4 -34.167 12 -48.5s18.833 -25.666 32.5 -33.999s28.834 -12.5 45.501 -12.5c16 0 30.667 3.33301 44 10
s25.666 16.667 36.999 30l66 -68c-19.333 -21.333 -42.166 -37.833 -68.499 -49.5s-53.833 -17.5 -82.5 -17.5zM394 -11.002c-50 0 -96.668 9.16699 -140.001 27.5s-81.333 44 -114 77s-58.167 71.333 -76.5 115s-27.5 90.834 -27.5 141.501s9.16699 97.834 27.5 141.501
s43.833 82 76.5 115s70.667 58.667 114 77s90 27.5 140 27.5s96.833 -9.16699 140.5 -27.5s81.667 -44 114 -77s57.666 -71.333 75.999 -115s27.5 -90.834 27.5 -141.501s-9.16699 -97.834 -27.5 -141.501s-43.666 -82 -75.999 -115s-70.166 -58.667 -113.499 -77
s-90.333 -27.5 -141 -27.5zM393.999 54.998c40 0 77.5 7.5 112.5 22.5s65.667 36.167 92 63.5s47 58.833 62 94.5s22.5 73.834 22.5 114.501s-7.5 78.834 -22.5 114.501s-35.667 67.167 -62 94.5s-57 48.5 -92 63.5s-72.5 22.5 -112.5 22.5s-77.333 -7.5 -112 -22.5
s-65.167 -36.167 -91.5 -63.5s-46.833 -58.833 -61.5 -94.5s-22 -73.834 -22 -114.501s7.5 -78.834 22.5 -114.501s35.5 -67.167 61.5 -94.5s56.333 -48.5 91 -63.5s72 -22.5 112 -22.5z" />
    <glyph glyph-name="ordfeminine" unicode="&#xaa;" horiz-adv-x="438" 
d="M172 304c-42 0 -76.333 11.168 -103 33.501s-40 51.5 -40 87.5c0 36.667 14.167 65.5 42.5 86.5s67.833 31.5 118.5 31.5c16.667 0 32.667 -1.16699 48 -3.5s30.666 -5.83301 45.999 -10.5v26c0 43.333 -27 65 -81 65c-15.333 0 -32.666 -2.5 -51.999 -7.5
s-41.666 -12.833 -66.999 -23.5l-39 80c31.333 14 61.5 24.5 90.5 31.5s57.833 10.5 86.5 10.5c53.333 0 94.666 -12.833 123.999 -38.5s44 -61.834 44 -108.501v-253h-106v26c-32 -22 -69.333 -33 -112 -33zM201 381.001c16 0 31.002 2 45.002 6s26.667 10 38 18v54
c-12.667 5.33301 -25.5 9 -38.5 11s-26.833 3 -41.5 3c-22.667 0 -40.334 -4.16699 -53.001 -12.5s-19 -19.5 -19 -33.5s6.16699 -25.167 18.5 -33.5s29.166 -12.5 50.499 -12.5z" />
    <glyph glyph-name="guillemotleft" unicode="&#xab;" horiz-adv-x="679" 
d="M261 0l-242 261l242 260h140l-236 -259l239 -262h-143zM508 0l-242 261l242 260h140l-236 -259l239 -262h-143z" />
    <glyph glyph-name="uni00AC" unicode="&#xac;" horiz-adv-x="594" 
d="M431 0v240h-372v103h478v-343h-106z" />
    <glyph glyph-name="uni00AD" unicode="&#xad;" horiz-adv-x="466" 
d="M41 227v116h376v-116h-376z" />
    <glyph glyph-name="registered" unicode="&#xae;" horiz-adv-x="487" 
d="M243 306c-37.333 0 -71.5 9.16602 -102.5 27.499s-55.667 43.166 -74 74.499s-27.5 66.333 -27.5 105s9.16699 73.5 27.5 104.5s43 55.667 74 74s65.167 27.5 102.5 27.5c38.667 0 73.334 -9.16699 104.001 -27.5s55.167 -43.166 73.5 -74.499s27.5 -66 27.5 -104
c0 -38.667 -9.16699 -73.667 -27.5 -105s-42.833 -56.166 -73.5 -74.499s-65.334 -27.5 -104.001 -27.5zM243 350.999c30.667 0 57.667 6.83105 81 20.498s41.833 32.834 55.5 57.501s20.5 52.667 20.5 84s-6.83301 59.166 -20.5 83.499s-32.167 43.5 -55.5 57.5
s-50.333 21 -81 21c-30 0 -56.833 -7 -80.5 -21s-42.167 -33.167 -55.5 -57.5s-20 -52.166 -20 -83.499s6.66699 -59.166 20 -83.499s31.833 -43.5 55.5 -57.5s50.5 -21 80.5 -21zM171 419.997l0.000976562 187.998h85c20 0 35.667 -5.33301 47 -16s17 -25 17 -43
c0 -11.333 -2.83301 -21.666 -8.5 -30.999s-13.834 -16.666 -24.501 -21.999l44 -76h-52l-35 66h-26v-66h-47zM247.001 570.995h-29v-51h28c18 0 27 8.66699 27 26c0 8 -2.16699 14.167 -6.5 18.5s-10.833 6.5 -19.5 6.5z" />
    <glyph glyph-name="macron" unicode="&#xaf;" 
d="M140 625v86h320v-86h-320z" />
    <glyph glyph-name="degree" unicode="&#xb0;" horiz-adv-x="403" 
d="M201 414c-28 0 -53.667 6.83301 -77 20.5s-41.5 31.834 -54.5 54.501s-19.5 47.334 -19.5 74.001s6.5 51.334 19.5 74.001s31.167 40.667 54.5 54s49 20 77 20c29.333 0 55.333 -6.66699 78 -20s40.667 -31.333 54 -54s20 -47.334 20 -74.001
s-6.66699 -51.334 -20 -74.001s-31.333 -40.834 -54 -54.501s-48.667 -20.5 -78 -20.5zM201 486c22 0 40.5 7.66699 55.5 23s22.5 33.333 22.5 54c0 21.333 -7.5 39.333 -22.5 54s-33.5 22 -55.5 22c-21.333 0 -39.666 -7.33301 -54.999 -22s-23 -32.667 -23 -54
c0 -20.667 7.66699 -38.667 23 -54s33.666 -23 54.999 -23z" />
    <glyph glyph-name="plusminus" unicode="&#xb1;" 
d="M83 -1v102h434v-102h-434zM248 199v158h-165v102h165v157h104v-157h165v-102h-165v-158h-104z" />
    <glyph glyph-name="twosuperior" unicode="&#xb2;" horiz-adv-x="307" 
d="M27 350l0.00195312 59.999l141 121c11.333 10.667 20 20.5 26 29.5s9 18.167 9 27.5c0 13.333 -5.16699 24.166 -15.5 32.499s-23.5 12.5 -39.5 12.5c-16.667 0 -32 -3.33301 -46 -10s-29.667 -17.667 -47 -33l-47 56c21.333 18.667 44.166 33 68.499 43
s49.166 15.333 74.499 16c39.333 -0.666992 71.5 -11.167 96.5 -31.5s37.5 -47.166 37.5 -80.499c0 -20 -5.16699 -38.667 -15.5 -56s-26.833 -35.666 -49.5 -54.999l-70 -62h138v-70h-261z" />
    <glyph glyph-name="threesuperior" unicode="&#xb3;" horiz-adv-x="329" 
d="M159 345c-28.667 0 -55.8281 5.00098 -81.4951 15.001s-46.5 24 -62.5 42l57 52c14 -14 27 -23.667 39 -29s27.667 -8 47 -8s34.5 3.66699 45.5 11s16.5 16.666 16.5 27.999c0 9.33301 -4.83301 16.833 -14.5 22.5s-23.167 8.5 -40.5 8.5h-33v67h24
c16.667 0 30 3.83301 40 11.5s15 17.5 15 29.5c0 11.333 -5 20.333 -15 27s-22.667 10 -38 10c-17.333 0 -31.833 -2.83301 -43.5 -8.5s-24.834 -16.167 -39.501 -31.5l-57 52c17.333 18.667 38.666 33.667 63.999 45s51.666 17 78.999 17c40 0 72.667 -9.33301 98 -28
s37.666 -43 36.999 -73c0.666992 -16.667 -3.33301 -32 -12 -46s-20.667 -25.667 -36 -35c18 -6.66699 32.167 -16.5 42.5 -29.5s15.5 -28.167 15.5 -45.5c0 -30.667 -13.833 -55.667 -41.5 -75s-62.834 -29 -105.501 -29z" />
    <glyph glyph-name="acute" unicode="&#xb4;" 
d="M219 608l90 130h156l-135 -130h-111z" />
    <glyph glyph-name="uni00B5" unicode="&#xb5;" horiz-adv-x="615" 
d="M63 -204l-0.00195312 725h137v-311c0 -32.667 9.66699 -59 29 -79s45.333 -30 78 -30c23.333 0 44 5.16699 62 15.5s33.333 25.833 46 46.5v358h137v-521h-137v85c-19.333 -30 -41.666 -53.167 -66.999 -69.5s-54.333 -24.5 -87 -24.5
c-11.333 0 -22.166 1.16699 -32.499 3.5s-19.833 5.83301 -28.5 10.5v-209h-137z" />
    <glyph glyph-name="paragraph" unicode="&#xb6;" horiz-adv-x="700" 
d="M314 0l0.00195312 253h-38c-48.667 0 -91.834 9.33301 -129.501 28s-67 44.5 -88 77.5s-31.5 71.167 -31.5 114.5c0 46 10.5 86 31.5 120s50.167 60.333 87.5 79s80.666 28 129.999 28h360v-700h-114v253h-96v-253h-112zM426.002 361h96v228h-96v-228zM271.002 361h43
v228h-43c-36.667 0 -66.167 -10.333 -88.5 -31s-33.5 -48 -33.5 -82c0 -34.667 11.167 -62.5 33.5 -83.5s51.833 -31.5 88.5 -31.5z" />
    <glyph glyph-name="periodcentered" unicode="&#xb7;" horiz-adv-x="250" 
d="M125 205c-22 0 -41 7.83301 -57 23.5s-24 34.834 -24 57.501c0 22 8 41 24 57s35 24 57 24s41 -8 57 -24s24 -35 24 -57c0 -22.667 -8 -41.834 -24 -57.501s-35 -23.5 -57 -23.5z" />
    <glyph glyph-name="cedilla" unicode="&#xb8;" 
d="M305 -236c-50 0 -91.668 15 -125.001 45l45 48c24.667 -19.333 50.667 -29 78 -29c17.333 0 30.833 3.5 40.5 10.5s14.5 16.167 14.5 27.5s-5 20.333 -15 27s-23.333 10 -40 10h-42l28 97h67l-14 -46c29.333 -2 52.5 -11 69.5 -27s25.5 -36.667 25.5 -62
c0 -28.667 -12.667 -52.667 -38 -72s-56.666 -29 -93.999 -29z" />
    <glyph glyph-name="onesuperior" unicode="&#xb9;" horiz-adv-x="195" 
d="M89 350v265l-73 -29v72l105 42h53v-350h-85z" />
    <glyph glyph-name="ordmasculine" unicode="&#xba;" horiz-adv-x="483" 
d="M241 301c-38.667 0 -74.001 9.16699 -106.001 27.5s-57.333 43 -76 74s-28 65.5 -28 103.5c0 38.667 9.33301 73.5 28 104.5s44 55.5 76 73.5s67.667 27 107 27c38.667 0 73.834 -9 105.501 -27s57 -42.5 76 -73.5s28.5 -65.833 28.5 -104.5
c0 -38 -9.5 -72.5 -28.5 -103.5s-44.333 -55.667 -76 -74s-67.167 -27.5 -106.5 -27.5zM240.999 396c19.333 0 37 4.83496 53 14.502s28.5 22.834 37.5 39.501s13.5 35.334 13.5 56.001c0 21.333 -4.5 40.166 -13.5 56.499s-21.5 29.5 -37.5 39.5s-33.667 15 -53 15
s-36.833 -5 -52.5 -15s-28.167 -23.333 -37.5 -40s-14 -35.334 -14 -56.001s4.66699 -39.334 14 -56.001s21.833 -29.834 37.5 -39.501s33.167 -14.5 52.5 -14.5z" />
    <glyph glyph-name="guillemotright" unicode="&#xbb;" horiz-adv-x="679" 
d="M418 521l242 -261l-242 -260h-140l236 259l-239 262h143zM170 521l242 -261l-242 -260h-140l236 259l-239 262h143z" />
    <glyph glyph-name="onequarter" unicode="&#xbc;" horiz-adv-x="665" 
d="M527 0v77h-197v68l183 205h98v-204h44v-69h-44v-77h-84zM425 146h102v113zM89 350v265l-73 -29v72l105 42h53v-350h-85zM53 0l396 700h102l-396 -700h-102z" />
    <glyph glyph-name="onehalf" unicode="&#xbd;" horiz-adv-x="693" 
d="M89 350v265l-73 -29v72l105 42h53v-350h-85zM53 0l396 700h102l-396 -700h-102zM413 0l0.00195312 59.999l141 121c11.333 10.667 20 20.5 26 29.5s9 18.167 9 27.5c0 13.333 -5.16699 24.166 -15.5 32.499s-23.5 12.5 -39.5 12.5c-16.667 0 -32 -3.33301 -46 -10
s-29.667 -17.667 -47 -33l-47 56c21.333 18.667 44.166 33 68.499 43s49.166 15.333 74.499 16c39.333 -0.666992 71.5 -11.167 96.5 -31.5s37.5 -47.166 37.5 -80.499c0 -20 -5.16699 -38.667 -15.5 -56s-26.833 -35.666 -49.5 -54.999l-70 -62h138v-70h-261z" />
    <glyph glyph-name="threequarters" unicode="&#xbe;" horiz-adv-x="759" 
d="M620 0v77h-197v68l183 205h98v-204h44v-69h-44v-77h-84zM518 146h102v113zM159 345c-28.667 0 -55.8281 5.00098 -81.4951 15.001s-46.5 24 -62.5 42l57 52c14 -14 27 -23.667 39 -29s27.667 -8 47 -8s34.5 3.66699 45.5 11s16.5 16.666 16.5 27.999
c0 9.33301 -4.83301 16.833 -14.5 22.5s-23.167 8.5 -40.5 8.5h-33v67h24c16.667 0 30 3.83301 40 11.5s15 17.5 15 29.5c0 11.333 -5 20.333 -15 27s-22.667 10 -38 10c-17.333 0 -31.833 -2.83301 -43.5 -8.5s-24.834 -16.167 -39.501 -31.5l-57 52
c17.333 18.667 38.666 33.667 63.999 45s51.666 17 78.999 17c40 0 72.667 -9.33301 98 -28s37.666 -43 36.999 -73c0.666992 -16.667 -3.33301 -32 -12 -46s-20.667 -25.667 -36 -35c18 -6.66699 32.167 -16.5 42.5 -29.5s15.5 -28.167 15.5 -45.5
c0 -30.667 -13.833 -55.667 -41.5 -75s-62.834 -29 -105.501 -29zM146.006 0.000976562l396 700h102l-396 -700h-102z" />
    <glyph glyph-name="questiondown" unicode="&#xbf;" horiz-adv-x="526" 
d="M338 284c1.33301 -30.667 0.000976562 -56.666 -3.99902 -77.999s-12 -40.5 -24 -57.5s-28.333 -33.167 -49 -48.5l-52 -37c-20.667 -15.333 -35.5 -29.5 -44.5 -42.5s-13.5 -26.5 -13.5 -40.5c0 -15.333 4.66699 -28.833 14 -40.5s22 -21 38 -28s34.333 -10.5 55 -10.5
c30 0 57.667 7.66699 83 23s44.666 36 57.999 62l110 -46c-14.667 -32 -34.667 -59.333 -60 -82s-54.833 -40.334 -88.5 -53.001s-69.5 -19 -107.5 -19c-45.333 0 -85.666 8.16699 -120.999 24.5s-63.333 38.5 -84 66.5s-31 60 -31 96c0 24 3.83301 45.5 11.5 64.5
s20.5 37.5 38.5 55.5s42.667 37.667 74 59l27 19c21.333 14 36.166 29.667 44.499 47s11.833 39.333 10.5 66h115zM280.001 507.001c22 0 41 -8 57 -24s24 -35 24 -57c0 -22.667 -8 -42 -24 -58s-35 -24 -57 -24s-41 8 -57 24s-24 35.333 -24 58c0 22 8 41 24 57
s35 24 57 24z" />
    <glyph glyph-name="Agrave" unicode="&#xc0;" horiz-adv-x="732" 
d="M-4 0l288 700h167l285 -700h-157l-71 184h-289l-72 -184h-151zM264 300h200l-100 258zM325 787l-135 130h158l88 -130h-111z" />
    <glyph glyph-name="Aacute" unicode="&#xc1;" horiz-adv-x="732" 
d="M-4 0l288 700h167l285 -700h-157l-71 184h-289l-72 -184h-151zM264 300h200l-100 258zM285 787l90 130h156l-135 -130h-111z" />
    <glyph glyph-name="Acircumflex" unicode="&#xc2;" horiz-adv-x="732" 
d="M-4 0l288 700h167l285 -700h-157l-71 184h-289l-72 -184h-151zM264 300h200l-100 258zM438 784l-74 74l-73 -74h-110l115 136h140l115 -136h-113z" />
    <glyph glyph-name="Atilde" unicode="&#xc3;" horiz-adv-x="732" 
d="M-4 0l288 700h167l285 -700h-157l-71 184h-289l-72 -184h-151zM264 300h200l-100 258zM256 776l-84.001 18c18 80.667 56 121 114 121c18.667 0 36.834 -4.16699 54.501 -12.5s34.5 -16.666 50.5 -24.999s30 -12.5 42 -12.5c11.333 0 20.333 4 27 12s12.334 22 17.001 42
l82 -18c-8 -41.333 -21.5 -72 -40.5 -92s-43.167 -30 -72.5 -30c-18 0 -35.833 4.16699 -53.5 12.5s-34.5 16.666 -50.5 24.999s-30.667 12.5 -44 12.5c-10.667 0 -19.334 -4 -26.001 -12s-12 -21.667 -16 -41z" />
    <glyph glyph-name="Adieresis" unicode="&#xc4;" horiz-adv-x="732" 
d="M-4 0l288 700h167l285 -700h-157l-71 184h-289l-72 -184h-151zM264 300h200l-100 258zM254 784c-20 0 -37 6.66699 -51 20s-21 30.666 -21 51.999c0 20.667 7 37.834 21 51.501s31 20.5 51 20.5c20.667 0 37.834 -6.83301 51.501 -20.5s20.5 -30.834 20.5 -51.501
c0 -21.333 -6.83301 -38.666 -20.5 -51.999s-30.834 -20 -51.501 -20zM478 784c-20 0 -37 6.66699 -51 20s-21 30.666 -21 51.999c0 20.667 7 37.834 21 51.501s31 20.5 51 20.5c20.667 0 37.834 -6.83301 51.501 -20.5s20.5 -30.834 20.5 -51.501
c0 -21.333 -6.83301 -38.666 -20.5 -51.999s-30.834 -20 -51.501 -20z" />
    <glyph glyph-name="Aring" unicode="&#xc5;" horiz-adv-x="732" 
d="M-4 0l288 700h167l285 -700h-157l-71 184h-289l-72 -184h-151zM264 300h200l-100 258zM366 764c-22.667 0 -43.334 5.5 -62.001 16.5s-33.5 25.667 -44.5 44s-16.5 38.5 -16.5 60.5c0 21.333 5.5 41.166 16.5 59.499s25.833 33 44.5 44s39.334 16.5 62.001 16.5
s43.334 -5.5 62.001 -16.5s33.5 -25.667 44.5 -44s16.5 -38.166 16.5 -59.499c0 -22 -5.5 -42.167 -16.5 -60.5s-25.833 -33 -44.5 -44s-39.334 -16.5 -62.001 -16.5zM366 822c17.333 0 32.166 6 44.499 18s18.5 26.667 18.5 44c0 18 -6.16699 33 -18.5 45
s-27.166 18 -44.499 18s-32.166 -6 -44.499 -18s-18.5 -27 -18.5 -45c0 -17.333 6.16699 -32 18.5 -44s27.166 -18 44.499 -18z" />
    <glyph glyph-name="AE" unicode="&#xc6;" horiz-adv-x="982" 
d="M-4 0l288 700h658v-126h-437l62 -160h247v-122h-200l65 -166h263v-126h-363l-71 184h-289l-72 -184h-151zM264 300h200l-99 258z" />
    <glyph glyph-name="Ccedilla" unicode="&#xc7;" horiz-adv-x="718" 
d="M389 -236c-49.333 0 -91.001 14.998 -125.001 44.998l45 48c25.333 -19.333 51.333 -29 78 -29c18 0 31.667 3.5 41 10.5s14 16.167 14 27.5s-4.83301 20.333 -14.5 27s-23.167 10 -40.5 10h-42l26 88c-48 4.66699 -92.333 16.834 -133 36.501s-76.167 45.667 -106.5 78
s-53.833 69.166 -70.5 110.499s-25 86 -25 134c0 51.333 9.5 98.833 28.5 142.5s45.5 81.834 79.5 114.501s73.5 58.167 118.5 76.5s93.5 27.5 145.5 27.5c38.667 0 76 -5.33301 112 -16s69.5 -25.667 100.5 -45s57.5 -42.666 79.5 -69.999l-98 -97
c-25.333 31.333 -54.5 55 -87.5 71s-68.5 24 -106.5 24c-31.333 0 -60.666 -5.83301 -87.999 -17.5s-51 -27.667 -71 -48s-35.667 -44.333 -47 -72s-17 -57.834 -17 -90.501c0 -32 5.66699 -61.833 17 -89.5s27.333 -51.667 48 -72s44.834 -36.166 72.501 -47.499
s57.834 -17 90.501 -17c36.667 0 71 7.66699 103 23s60.333 37.333 85 66l95 -94c-30.667 -36 -68.834 -65.333 -114.501 -88s-93.834 -36 -144.501 -40l-10 -37c29.333 -2 52.5 -11 69.5 -27s25.5 -36.667 25.5 -62c0 -28.667 -12.667 -52.667 -38 -72s-57 -29 -95 -29z
" />
    <glyph glyph-name="Egrave" unicode="&#xc8;" horiz-adv-x="645" 
d="M63 0v700h538v-126h-393v-160h259v-122h-259v-166h397v-126h-542zM303 787l-135 130h158l88 -130h-111z" />
    <glyph glyph-name="Eacute" unicode="&#xc9;" horiz-adv-x="645" 
d="M63 0v700h538v-126h-393v-160h259v-122h-259v-166h397v-126h-542zM263 787l90 130h156l-135 -130h-111z" />
    <glyph glyph-name="Ecircumflex" unicode="&#xca;" horiz-adv-x="645" 
d="M63 0v700h538v-126h-393v-160h259v-122h-259v-166h397v-126h-542zM416 784l-74 74l-73 -74h-110l115 136h140l115 -136h-113z" />
    <glyph glyph-name="Edieresis" unicode="&#xcb;" horiz-adv-x="645" 
d="M63 0v700h538v-126h-393v-160h259v-122h-259v-166h397v-126h-542zM232 784c-20 0 -37 6.66699 -51 20s-21 30.666 -21 51.999c0 20.667 7 37.834 21 51.501s31 20.5 51 20.5c20.667 0 37.834 -6.83301 51.501 -20.5s20.5 -30.834 20.5 -51.501
c0 -21.333 -6.83301 -38.666 -20.5 -51.999s-30.834 -20 -51.501 -20zM456 784c-20 0 -37 6.66699 -51 20s-21 30.666 -21 51.999c0 20.667 7 37.834 21 51.501s31 20.5 51 20.5c20.667 0 37.834 -6.83301 51.501 -20.5s20.5 -30.834 20.5 -51.501
c0 -21.333 -6.83301 -38.666 -20.5 -51.999s-30.834 -20 -51.501 -20z" />
    <glyph glyph-name="Igrave" unicode="&#xcc;" horiz-adv-x="272" 
d="M63 0v700h145v-700h-145zM95 787l-135 130h158l88 -130h-111z" />
    <glyph glyph-name="Iacute" unicode="&#xcd;" horiz-adv-x="272" 
d="M63 0v700h145v-700h-145zM55 787l90 130h156l-135 -130h-111z" />
    <glyph glyph-name="Icircumflex" unicode="&#xce;" horiz-adv-x="272" 
d="M63 0v700h145v-700h-145zM208 784l-74 74l-73 -74h-110l115 136h140l115 -136h-113z" />
    <glyph glyph-name="Idieresis" unicode="&#xcf;" horiz-adv-x="272" 
d="M63 0v700h145v-700h-145zM24 784c-20 0 -37 6.66699 -51 20s-21 30.666 -21 51.999c0 20.667 7 37.834 21 51.501s31 20.5 51 20.5c20.667 0 37.834 -6.83301 51.501 -20.5s20.5 -30.834 20.5 -51.501c0 -21.333 -6.83301 -38.666 -20.5 -51.999s-30.834 -20 -51.501 -20
zM248 784c-20 0 -37 6.66699 -51 20s-21 30.666 -21 51.999c0 20.667 7 37.834 21 51.501s31 20.5 51 20.5c20.667 0 37.834 -6.83301 51.501 -20.5s20.5 -30.834 20.5 -51.501c0 -21.333 -6.83301 -38.666 -20.5 -51.999s-30.834 -20 -51.501 -20z" />
    <glyph glyph-name="Eth" unicode="&#xd0;" horiz-adv-x="770" 
d="M95 0l-0.00195312 293.001h-78v115h78v292h269c52 0 100.333 -8.83301 145 -26.5s83.834 -42.5 117.501 -74.5s59.834 -69.333 78.501 -112s28 -88.667 28 -138c0 -50 -9.33301 -96 -28 -138s-44.667 -78.833 -78 -110.5s-72.5 -56.334 -117.5 -74.001
s-93.5 -26.5 -145.5 -26.5h-269zM239.998 129.001h122c31.333 0 60.333 5.5 87 16.5s50.167 26.5 70.5 46.5s36.166 43.333 47.499 70s17 55.667 17 87s-5.66699 60.5 -17 87.5s-27.166 50.5 -47.499 70.5s-43.833 35.667 -70.5 47s-55.667 17 -87 17h-122v-163h165v-115
h-165v-164z" />
    <glyph glyph-name="Ntilde" unicode="&#xd1;" horiz-adv-x="749" 
d="M63 0v700h138l348 -452v452h136v-700h-128l-357 468v-468h-137zM264 776l-84.001 18c18 80.667 56 121 114 121c18.667 0 36.834 -4.16699 54.501 -12.5s34.5 -16.666 50.5 -24.999s30 -12.5 42 -12.5c11.333 0 20.333 4 27 12s12.334 22 17.001 42l82 -18
c-8 -41.333 -21.5 -72 -40.5 -92s-43.167 -30 -72.5 -30c-18 0 -35.833 4.16699 -53.5 12.5s-34.5 16.666 -50.5 24.999s-30.667 12.5 -44 12.5c-10.667 0 -19.334 -4 -26.001 -12s-12 -21.667 -16 -41z" />
    <glyph glyph-name="Ograve" unicode="&#xd2;" horiz-adv-x="813" 
d="M406 -11c-52 0 -100.333 9.16699 -145 27.5s-83.834 44 -117.501 77s-60 71.333 -79 115s-28.5 90.834 -28.5 141.501s9.5 97.834 28.5 141.501s45.333 82 79 115s72.834 58.667 117.501 77s93 27.5 145 27.5s100.5 -9.16699 145.5 -27.5s84.333 -44 118 -77
s59.834 -71.333 78.501 -115s28 -90.834 28 -141.501s-9.33301 -97.834 -28 -141.501s-44.834 -82 -78.501 -115s-73 -58.667 -118 -77s-93.5 -27.5 -145.5 -27.5zM406 122c32 0 61.333 5.83203 88 17.499s50 27.667 70 48s35.667 44.5 47 72.5s17 58 17 90
c0 32.667 -5.66699 62.834 -17 90.501s-27 51.667 -47 72s-43.333 36.333 -70 48s-56 17.5 -88 17.5c-31.333 0 -60.333 -5.83301 -87 -17.5s-50 -27.667 -70 -48s-35.667 -44.333 -47 -72s-17 -57.5 -17 -89.5c0 -32.667 5.66699 -63 17 -91s27 -52.167 47 -72.5
s43.333 -36.333 70 -48s55.667 -17.5 87 -17.5zM365 786.999l-135 130h158l88 -130h-111z" />
    <glyph glyph-name="Oacute" unicode="&#xd3;" horiz-adv-x="813" 
d="M406 -11c-52 0 -100.333 9.16699 -145 27.5s-83.834 44 -117.501 77s-60 71.333 -79 115s-28.5 90.834 -28.5 141.501s9.5 97.834 28.5 141.501s45.333 82 79 115s72.834 58.667 117.501 77s93 27.5 145 27.5s100.5 -9.16699 145.5 -27.5s84.333 -44 118 -77
s59.834 -71.333 78.501 -115s28 -90.834 28 -141.501s-9.33301 -97.834 -28 -141.501s-44.834 -82 -78.501 -115s-73 -58.667 -118 -77s-93.5 -27.5 -145.5 -27.5zM406 122c32 0 61.333 5.83203 88 17.499s50 27.667 70 48s35.667 44.5 47 72.5s17 58 17 90
c0 32.667 -5.66699 62.834 -17 90.501s-27 51.667 -47 72s-43.333 36.333 -70 48s-56 17.5 -88 17.5c-31.333 0 -60.333 -5.83301 -87 -17.5s-50 -27.667 -70 -48s-35.667 -44.333 -47 -72s-17 -57.5 -17 -89.5c0 -32.667 5.66699 -63 17 -91s27 -52.167 47 -72.5
s43.333 -36.333 70 -48s55.667 -17.5 87 -17.5zM325 786.999l90 130h156l-135 -130h-111z" />
    <glyph glyph-name="Ocircumflex" unicode="&#xd4;" horiz-adv-x="813" 
d="M406 -11c-52 0 -100.333 9.16699 -145 27.5s-83.834 44 -117.501 77s-60 71.333 -79 115s-28.5 90.834 -28.5 141.501s9.5 97.834 28.5 141.501s45.333 82 79 115s72.834 58.667 117.501 77s93 27.5 145 27.5s100.5 -9.16699 145.5 -27.5s84.333 -44 118 -77
s59.834 -71.333 78.501 -115s28 -90.834 28 -141.501s-9.33301 -97.834 -28 -141.501s-44.834 -82 -78.501 -115s-73 -58.667 -118 -77s-93.5 -27.5 -145.5 -27.5zM406 122c32 0 61.333 5.83203 88 17.499s50 27.667 70 48s35.667 44.5 47 72.5s17 58 17 90
c0 32.667 -5.66699 62.834 -17 90.501s-27 51.667 -47 72s-43.333 36.333 -70 48s-56 17.5 -88 17.5c-31.333 0 -60.333 -5.83301 -87 -17.5s-50 -27.667 -70 -48s-35.667 -44.333 -47 -72s-17 -57.5 -17 -89.5c0 -32.667 5.66699 -63 17 -91s27 -52.167 47 -72.5
s43.333 -36.333 70 -48s55.667 -17.5 87 -17.5zM478 783.999l-74 74l-73 -74h-110l115 136h140l115 -136h-113z" />
    <glyph glyph-name="Otilde" unicode="&#xd5;" horiz-adv-x="813" 
d="M406 -11c-52 0 -100.333 9.16699 -145 27.5s-83.834 44 -117.501 77s-60 71.333 -79 115s-28.5 90.834 -28.5 141.501s9.5 97.834 28.5 141.501s45.333 82 79 115s72.834 58.667 117.501 77s93 27.5 145 27.5s100.5 -9.16699 145.5 -27.5s84.333 -44 118 -77
s59.834 -71.333 78.501 -115s28 -90.834 28 -141.501s-9.33301 -97.834 -28 -141.501s-44.834 -82 -78.501 -115s-73 -58.667 -118 -77s-93.5 -27.5 -145.5 -27.5zM406 122c32 0 61.333 5.83203 88 17.499s50 27.667 70 48s35.667 44.5 47 72.5s17 58 17 90
c0 32.667 -5.66699 62.834 -17 90.501s-27 51.667 -47 72s-43.333 36.333 -70 48s-56 17.5 -88 17.5c-31.333 0 -60.333 -5.83301 -87 -17.5s-50 -27.667 -70 -48s-35.667 -44.333 -47 -72s-17 -57.5 -17 -89.5c0 -32.667 5.66699 -63 17 -91s27 -52.167 47 -72.5
s43.333 -36.333 70 -48s55.667 -17.5 87 -17.5zM296 775.999l-84.001 18c18 80.667 56 121 114 121c18.667 0 36.834 -4.16699 54.501 -12.5s34.5 -16.666 50.5 -24.999s30 -12.5 42 -12.5c11.333 0 20.333 4 27 12s12.334 22 17.001 42l82 -18
c-8 -41.333 -21.5 -72 -40.5 -92s-43.167 -30 -72.5 -30c-18 0 -35.833 4.16699 -53.5 12.5s-34.5 16.666 -50.5 24.999s-30.667 12.5 -44 12.5c-10.667 0 -19.334 -4 -26.001 -12s-12 -21.667 -16 -41z" />
    <glyph glyph-name="Odieresis" unicode="&#xd6;" horiz-adv-x="813" 
d="M406 -11c-52 0 -100.333 9.16699 -145 27.5s-83.834 44 -117.501 77s-60 71.333 -79 115s-28.5 90.834 -28.5 141.501s9.5 97.834 28.5 141.501s45.333 82 79 115s72.834 58.667 117.501 77s93 27.5 145 27.5s100.5 -9.16699 145.5 -27.5s84.333 -44 118 -77
s59.834 -71.333 78.501 -115s28 -90.834 28 -141.501s-9.33301 -97.834 -28 -141.501s-44.834 -82 -78.501 -115s-73 -58.667 -118 -77s-93.5 -27.5 -145.5 -27.5zM406 122c32 0 61.333 5.83203 88 17.499s50 27.667 70 48s35.667 44.5 47 72.5s17 58 17 90
c0 32.667 -5.66699 62.834 -17 90.501s-27 51.667 -47 72s-43.333 36.333 -70 48s-56 17.5 -88 17.5c-31.333 0 -60.333 -5.83301 -87 -17.5s-50 -27.667 -70 -48s-35.667 -44.333 -47 -72s-17 -57.5 -17 -89.5c0 -32.667 5.66699 -63 17 -91s27 -52.167 47 -72.5
s43.333 -36.333 70 -48s55.667 -17.5 87 -17.5zM294 783.999c-20 0 -37 6.66699 -51 20s-21 30.666 -21 51.999c0 20.667 7 37.834 21 51.501s31 20.5 51 20.5c20.667 0 37.834 -6.83301 51.501 -20.5s20.5 -30.834 20.5 -51.501c0 -21.333 -6.83301 -38.666 -20.5 -51.999
s-30.834 -20 -51.501 -20zM518 783.999c-20 0 -37 6.66699 -51 20s-21 30.666 -21 51.999c0 20.667 7 37.834 21 51.501s31 20.5 51 20.5c20.667 0 37.834 -6.83301 51.501 -20.5s20.5 -30.834 20.5 -51.501c0 -21.333 -6.83301 -38.666 -20.5 -51.999
s-30.834 -20 -51.501 -20z" />
    <glyph glyph-name="multiply" unicode="&#xd7;" 
d="M158 141l-62 65l141 152l-142 153l63 67l143 -153l142 152l62 -65l-143 -152l143 -153l-63 -67l-143 152z" />
    <glyph glyph-name="Oslash" unicode="&#xd8;" horiz-adv-x="813" 
d="M406 -11c-35.333 0 -69.5 4.66699 -102.5 14s-63.5 22.333 -91.5 39l-35 -42h-128l85 103c-30 32 -53.833 69.167 -71.5 111.5s-26.5 87.5 -26.5 135.5c0 50.667 9.5 97.834 28.5 141.501s45.333 82 79 115s72.834 58.667 117.501 77s93 27.5 145 27.5
c34.667 0 68 -4.33301 100 -13s61.667 -20.667 89 -36l32 38h129l-82 -99c32 -32 57 -69.5 75 -112.5s27 -89.167 27 -138.5c0 -50.667 -9.33301 -97.834 -28 -141.501s-44.834 -82 -78.501 -115s-73 -58.667 -118 -77s-93.5 -27.5 -145.5 -27.5zM227 215l279.001 339.002
c-14.667 8 -30.5 14 -47.5 18s-34.5 6 -52.5 6c-31.333 0 -60.5 -5.83301 -87.5 -17.5s-50.333 -27.667 -70 -48s-35.167 -44.333 -46.5 -72s-17 -57.834 -17 -90.501c0 -26 3.66699 -50.333 11 -73s17.666 -43.334 30.999 -62.001zM406.001 122.002
c32 0 61.334 5.83301 88.001 17.5s50 27.667 70 48s35.667 44.5 47 72.5s17 58 17 90c0 27.333 -4 52.833 -12 76.5s-19.333 44.834 -34 63.501l-282 -341c15.333 -8.66699 32.166 -15.334 50.499 -20.001s36.833 -7 55.5 -7z" />
    <glyph glyph-name="Ugrave" unicode="&#xd9;" horiz-adv-x="725" 
d="M362 -10c-63.333 0 -118.171 12.667 -164.504 38s-82.166 61.5 -107.499 108.5s-38 102.167 -38 165.5v398h145v-398c0 -36 6.83301 -67.5 20.5 -94.5s33 -47.667 58 -62s54.167 -21.5 87.5 -21.5s62.333 7.16699 87 21.5s43.834 35 57.501 62s20.5 58.5 20.5 94.5v398
h144v-398c0 -62.667 -12.667 -117.5 -38 -164.5s-61.166 -83.333 -107.499 -109s-101.166 -38.5 -164.499 -38.5zM320.995 787l-135 130h158l88 -130h-111z" />
    <glyph glyph-name="Uacute" unicode="&#xda;" horiz-adv-x="725" 
d="M362 -10c-63.333 0 -118.171 12.667 -164.504 38s-82.166 61.5 -107.499 108.5s-38 102.167 -38 165.5v398h145v-398c0 -36 6.83301 -67.5 20.5 -94.5s33 -47.667 58 -62s54.167 -21.5 87.5 -21.5s62.333 7.16699 87 21.5s43.834 35 57.501 62s20.5 58.5 20.5 94.5v398
h144v-398c0 -62.667 -12.667 -117.5 -38 -164.5s-61.166 -83.333 -107.499 -109s-101.166 -38.5 -164.499 -38.5zM281.995 787l90 130h156l-135 -130h-111z" />
    <glyph glyph-name="Ucircumflex" unicode="&#xdb;" horiz-adv-x="725" 
d="M362 -10c-63.333 0 -118.171 12.667 -164.504 38s-82.166 61.5 -107.499 108.5s-38 102.167 -38 165.5v398h145v-398c0 -36 6.83301 -67.5 20.5 -94.5s33 -47.667 58 -62s54.167 -21.5 87.5 -21.5s62.333 7.16699 87 21.5s43.834 35 57.501 62s20.5 58.5 20.5 94.5v398
h144v-398c0 -62.667 -12.667 -117.5 -38 -164.5s-61.166 -83.333 -107.499 -109s-101.166 -38.5 -164.499 -38.5zM434.995 784l-74 74l-73 -74h-110l115 136h140l115 -136h-113z" />
    <glyph glyph-name="Udieresis" unicode="&#xdc;" horiz-adv-x="725" 
d="M362 -10c-63.333 0 -118.171 12.667 -164.504 38s-82.166 61.5 -107.499 108.5s-38 102.167 -38 165.5v398h145v-398c0 -36 6.83301 -67.5 20.5 -94.5s33 -47.667 58 -62s54.167 -21.5 87.5 -21.5s62.333 7.16699 87 21.5s43.834 35 57.501 62s20.5 58.5 20.5 94.5v398
h144v-398c0 -62.667 -12.667 -117.5 -38 -164.5s-61.166 -83.333 -107.499 -109s-101.166 -38.5 -164.499 -38.5zM250.995 784c-20 0 -37 6.66699 -51 20s-21 30.666 -21 51.999c0 20.667 7 37.834 21 51.501s31 20.5 51 20.5c20.667 0 37.834 -6.83301 51.501 -20.5
s20.5 -30.834 20.5 -51.501c0 -21.333 -6.83301 -38.666 -20.5 -51.999s-30.834 -20 -51.501 -20zM474.995 784c-20 0 -37 6.66699 -51 20s-21 30.666 -21 51.999c0 20.667 7 37.834 21 51.501s31 20.5 51 20.5c20.667 0 37.834 -6.83301 51.501 -20.5
s20.5 -30.834 20.5 -51.501c0 -21.333 -6.83301 -38.666 -20.5 -51.999s-30.834 -20 -51.501 -20z" />
    <glyph glyph-name="Yacute" unicode="&#xdd;" horiz-adv-x="706" 
d="M280 0v268l-286 432h167l196 -304l197 304h158l-287 -433v-267h-145zM272 787l90 130h156l-135 -130h-111z" />
    <glyph glyph-name="Thorn" unicode="&#xde;" horiz-adv-x="678" 
d="M63 0v699.999h145v-130h206c44.667 0 84.5 -9.5 119.5 -28.5s62.5 -45.167 82.5 -78.5s30 -71.666 30 -114.999c0 -41.333 -10 -78.5 -30 -111.5s-47.5 -58.833 -82.5 -77.5s-74.833 -28 -119.5 -28h-206v-131h-145zM208 250.999l190 -0.000976562
c19.333 0 36.666 4.16699 51.999 12.5s27.333 19.833 36 34.5s13 31.334 13 50.001s-4.33301 35.5 -13 50.5s-20.667 26.667 -36 35s-32.666 12.5 -51.999 12.5h-190v-195z" />
    <glyph glyph-name="germandbls" unicode="&#xdf;" horiz-adv-x="685" 
d="M470 -11c-83.333 0 -154.332 27.002 -212.999 81.002l69 74c43.333 -40.667 89.666 -61 138.999 -61c26 0 46.5 5.33301 61.5 16s22.5 24.667 22.5 42c0 16 -4.66699 28.667 -14 38s-26 17.666 -50 24.999l-85 29c-38 12.667 -65.667 27.834 -83 45.501
s-26 39.5 -26 65.5c0 23.333 5.66699 42.833 17 58.5s25.333 29 42 40s33.5 21 50.5 30s31.167 19 42.5 30s17 24.167 17 39.5c0 22 -12 40.333 -36 55s-54 22 -90 22c-46.667 0 -82.334 -12.833 -107.001 -38.5s-37 -63.167 -37 -112.5v-468h-136v471
c0 80.667 24.5 143.667 73.5 189s116.833 68 203.5 68c52.667 0 98.834 -6.83301 138.501 -20.5s70.167 -33 91.5 -58s32 -54.5 32 -88.5c0 -26.667 -5.66699 -48.834 -17 -66.501s-25.5 -32.5 -42.5 -44.5s-34.167 -22.5 -51.5 -31.5s-31.833 -17.833 -43.5 -26.5
s-17.5 -18.334 -17.5 -29.001c0 -9.33301 3.33301 -17.166 10 -23.499s19.334 -12.833 38.001 -19.5l80 -27c44.667 -16.667 76.667 -35.834 96 -57.501s29 -49.834 29 -84.501c0 -49.333 -18.333 -88.666 -55 -117.999s-86.334 -44 -149.001 -44z" />
    <glyph glyph-name="agrave" unicode="&#xe0;" horiz-adv-x="555" 
d="M220 -9c-37.333 0 -70.334 6.83301 -99.001 20.5s-51 32.5 -67 56.5s-24 51.667 -24 83c0 50 18.833 88.833 56.5 116.5s89.5 41.5 155.5 41.5c45.333 0 88 -7 128 -21v38c0 30 -9.33301 52.667 -28 68s-46 23 -82 23c-22 0 -45.667 -3.5 -71 -10.5
s-54.666 -17.833 -87.999 -32.5l-50 101c41.333 18.667 80.833 32.667 118.5 42s75.5 14 113.5 14c70 0 124.5 -16.833 163.5 -50.5s58.5 -81.167 58.5 -142.5v-338h-135v37c-21.333 -16 -44.333 -27.667 -69 -35s-51.667 -11 -81 -11zM159.999 154
c0 -20 8.66797 -35.833 26.001 -47.5s40.333 -17.5 69 -17.5c22.667 0 43.667 2.83301 63 8.5s36.666 14.167 51.999 25.5v76c-16.667 6.66699 -34 11.667 -52 15s-37.333 5 -58 5c-31.333 0 -55.833 -5.83301 -73.5 -17.5s-26.5 -27.5 -26.5 -47.5zM228 608l-135 130h158
l88 -130h-111z" />
    <glyph glyph-name="aacute" unicode="&#xe1;" horiz-adv-x="555" 
d="M220 -9c-37.333 0 -70.334 6.83301 -99.001 20.5s-51 32.5 -67 56.5s-24 51.667 -24 83c0 50 18.833 88.833 56.5 116.5s89.5 41.5 155.5 41.5c45.333 0 88 -7 128 -21v38c0 30 -9.33301 52.667 -28 68s-46 23 -82 23c-22 0 -45.667 -3.5 -71 -10.5
s-54.666 -17.833 -87.999 -32.5l-50 101c41.333 18.667 80.833 32.667 118.5 42s75.5 14 113.5 14c70 0 124.5 -16.833 163.5 -50.5s58.5 -81.167 58.5 -142.5v-338h-135v37c-21.333 -16 -44.333 -27.667 -69 -35s-51.667 -11 -81 -11zM159.999 154
c0 -20 8.66797 -35.833 26.001 -47.5s40.333 -17.5 69 -17.5c22.667 0 43.667 2.83301 63 8.5s36.666 14.167 51.999 25.5v76c-16.667 6.66699 -34 11.667 -52 15s-37.333 5 -58 5c-31.333 0 -55.833 -5.83301 -73.5 -17.5s-26.5 -27.5 -26.5 -47.5zM189 608l90 130h156
l-135 -130h-111z" />
    <glyph glyph-name="acircumflex" unicode="&#xe2;" horiz-adv-x="555" 
d="M220 -9c-37.333 0 -70.334 6.83301 -99.001 20.5s-51 32.5 -67 56.5s-24 51.667 -24 83c0 50 18.833 88.833 56.5 116.5s89.5 41.5 155.5 41.5c45.333 0 88 -7 128 -21v38c0 30 -9.33301 52.667 -28 68s-46 23 -82 23c-22 0 -45.667 -3.5 -71 -10.5
s-54.666 -17.833 -87.999 -32.5l-50 101c41.333 18.667 80.833 32.667 118.5 42s75.5 14 113.5 14c70 0 124.5 -16.833 163.5 -50.5s58.5 -81.167 58.5 -142.5v-338h-135v37c-21.333 -16 -44.333 -27.667 -69 -35s-51.667 -11 -81 -11zM159.999 154
c0 -20 8.66797 -35.833 26.001 -47.5s40.333 -17.5 69 -17.5c22.667 0 43.667 2.83301 63 8.5s36.666 14.167 51.999 25.5v76c-16.667 6.66699 -34 11.667 -52 15s-37.333 5 -58 5c-31.333 0 -55.833 -5.83301 -73.5 -17.5s-26.5 -27.5 -26.5 -47.5zM342 605l-74 74l-73 -74
h-110l115 136h140l115 -136h-113z" />
    <glyph glyph-name="atilde" unicode="&#xe3;" horiz-adv-x="555" 
d="M220 -9c-37.333 0 -70.334 6.83301 -99.001 20.5s-51 32.5 -67 56.5s-24 51.667 -24 83c0 50 18.833 88.833 56.5 116.5s89.5 41.5 155.5 41.5c45.333 0 88 -7 128 -21v38c0 30 -9.33301 52.667 -28 68s-46 23 -82 23c-22 0 -45.667 -3.5 -71 -10.5
s-54.666 -17.833 -87.999 -32.5l-50 101c41.333 18.667 80.833 32.667 118.5 42s75.5 14 113.5 14c70 0 124.5 -16.833 163.5 -50.5s58.5 -81.167 58.5 -142.5v-338h-135v37c-21.333 -16 -44.333 -27.667 -69 -35s-51.667 -11 -81 -11zM159.999 154
c0 -20 8.66797 -35.833 26.001 -47.5s40.333 -17.5 69 -17.5c22.667 0 43.667 2.83301 63 8.5s36.666 14.167 51.999 25.5v76c-16.667 6.66699 -34 11.667 -52 15s-37.333 5 -58 5c-31.333 0 -55.833 -5.83301 -73.5 -17.5s-26.5 -27.5 -26.5 -47.5zM160 597l-84.001 18
c18 80.667 56 121 114 121c18.667 0 36.834 -4.16699 54.501 -12.5s34.5 -16.666 50.5 -24.999s30 -12.5 42 -12.5c11.333 0 20.333 4 27 12s12.334 22 17.001 42l82 -18c-8 -41.333 -21.5 -72 -40.5 -92s-43.167 -30 -72.5 -30c-18 0 -35.833 4.16699 -53.5 12.5
s-34.5 16.666 -50.5 24.999s-30.667 12.5 -44 12.5c-10.667 0 -19.334 -4 -26.001 -12s-12 -21.667 -16 -41z" />
    <glyph glyph-name="adieresis" unicode="&#xe4;" horiz-adv-x="555" 
d="M220 -9c-37.333 0 -70.334 6.83301 -99.001 20.5s-51 32.5 -67 56.5s-24 51.667 -24 83c0 50 18.833 88.833 56.5 116.5s89.5 41.5 155.5 41.5c45.333 0 88 -7 128 -21v38c0 30 -9.33301 52.667 -28 68s-46 23 -82 23c-22 0 -45.667 -3.5 -71 -10.5
s-54.666 -17.833 -87.999 -32.5l-50 101c41.333 18.667 80.833 32.667 118.5 42s75.5 14 113.5 14c70 0 124.5 -16.833 163.5 -50.5s58.5 -81.167 58.5 -142.5v-338h-135v37c-21.333 -16 -44.333 -27.667 -69 -35s-51.667 -11 -81 -11zM159.999 154
c0 -20 8.66797 -35.833 26.001 -47.5s40.333 -17.5 69 -17.5c22.667 0 43.667 2.83301 63 8.5s36.666 14.167 51.999 25.5v76c-16.667 6.66699 -34 11.667 -52 15s-37.333 5 -58 5c-31.333 0 -55.833 -5.83301 -73.5 -17.5s-26.5 -27.5 -26.5 -47.5zM158 605
c-20 0 -37 6.66699 -51 20s-21 30.666 -21 51.999c0 20.667 7 37.834 21 51.501s31 20.5 51 20.5c20.667 0 37.834 -6.83301 51.501 -20.5s20.5 -30.834 20.5 -51.501c0 -21.333 -6.83301 -38.666 -20.5 -51.999s-30.834 -20 -51.501 -20zM382 605c-20 0 -37 6.66699 -51 20
s-21 30.666 -21 51.999c0 20.667 7 37.834 21 51.501s31 20.5 51 20.5c20.667 0 37.834 -6.83301 51.501 -20.5s20.5 -30.834 20.5 -51.501c0 -21.333 -6.83301 -38.666 -20.5 -51.999s-30.834 -20 -51.501 -20z" />
    <glyph glyph-name="aring" unicode="&#xe5;" horiz-adv-x="555" 
d="M220 -9c-37.333 0 -70.334 6.83301 -99.001 20.5s-51 32.5 -67 56.5s-24 51.667 -24 83c0 50 18.833 88.833 56.5 116.5s89.5 41.5 155.5 41.5c45.333 0 88 -7 128 -21v38c0 30 -9.33301 52.667 -28 68s-46 23 -82 23c-22 0 -45.667 -3.5 -71 -10.5
s-54.666 -17.833 -87.999 -32.5l-50 101c41.333 18.667 80.833 32.667 118.5 42s75.5 14 113.5 14c70 0 124.5 -16.833 163.5 -50.5s58.5 -81.167 58.5 -142.5v-338h-135v37c-21.333 -16 -44.333 -27.667 -69 -35s-51.667 -11 -81 -11zM159.999 154
c0 -20 8.66797 -35.833 26.001 -47.5s40.333 -17.5 69 -17.5c22.667 0 43.667 2.83301 63 8.5s36.666 14.167 51.999 25.5v76c-16.667 6.66699 -34 11.667 -52 15s-37.333 5 -58 5c-31.333 0 -55.833 -5.83301 -73.5 -17.5s-26.5 -27.5 -26.5 -47.5zM270 585
c-22.667 0 -43.334 5.5 -62.001 16.5s-33.5 25.667 -44.5 44s-16.5 38.5 -16.5 60.5c0 21.333 5.5 41.166 16.5 59.499s25.833 33 44.5 44s39.334 16.5 62.001 16.5s43.334 -5.5 62.001 -16.5s33.5 -25.667 44.5 -44s16.5 -38.166 16.5 -59.499
c0 -22 -5.5 -42.167 -16.5 -60.5s-25.833 -33 -44.5 -44s-39.334 -16.5 -62.001 -16.5zM270 643c17.333 0 32.166 6 44.499 18s18.5 26.667 18.5 44c0 18 -6.16699 33 -18.5 45s-27.166 18 -44.499 18s-32.166 -6 -44.499 -18s-18.5 -27 -18.5 -45
c0 -17.333 6.16699 -32 18.5 -44s27.166 -18 44.499 -18z" />
    <glyph glyph-name="ae" unicode="&#xe6;" horiz-adv-x="926" 
d="M220 -9c-36.667 0 -68.999 6.83398 -96.999 20.501s-50 32.5 -66 56.5s-24 51.667 -24 83c0 50 18.667 88.833 56 116.5s88.666 41.5 153.999 41.5c44.667 0 87 -6.66699 127 -20v37c0 30 -9.33301 52.667 -28 68s-46 23 -82 23c-22 0 -45.667 -3.5 -71 -10.5
s-54.666 -17.833 -87.999 -32.5l-50 101c41.333 18.667 80.833 32.667 118.5 42s75.5 14 113.5 14c41.333 0 77.333 -6.16699 108 -18.5s54.667 -30.5 72 -54.5c22.667 22.667 48.834 40.334 78.501 53.001s61.834 19 96.501 19c50 0 94.333 -12.333 133 -37
s69.167 -58 91.5 -100s33.5 -89.667 33.5 -143v-36h-386c6 -20.667 15.833 -39.334 29.5 -56.001s30.667 -29.667 51 -39s42.166 -14 65.499 -14s45 3.66699 65 11s36.667 17.666 50 30.999l90 -82c-32 -26 -64.833 -45 -98.5 -57s-71.167 -18 -112.5 -18
c-42.667 0 -81.834 8 -117.501 24s-66.167 38 -91.5 66c-31.333 -30.667 -64.833 -53.167 -100.5 -67.5s-75.834 -21.5 -120.501 -21.5zM508.001 312.001h253.999c-5.33301 20.667 -14.166 38.834 -26.499 54.501s-27 28 -44 37s-35.833 13.5 -56.5 13.5
s-39.667 -4.33301 -57 -13s-32 -20.834 -44 -36.501s-20.667 -34.167 -26 -55.5zM255 89.001c26.667 0 51.499 5 74.499 15s44.5 24.667 64.5 44l-8.5 24.5c-3 8.33301 -5.5 16.5 -7.5 24.5c-18 7.33301 -36.667 12.833 -56 16.5s-39.666 5.5 -60.999 5.5
c-30.667 0 -54.5 -5.83301 -71.5 -17.5s-25.5 -27.5 -25.5 -47.5s8.16699 -35.833 24.5 -47.5s38.5 -17.5 66.5 -17.5z" />
    <glyph glyph-name="ccedilla" unicode="&#xe7;" horiz-adv-x="532" 
d="M286 -236c-50 0 -92 15.002 -126 45.002l45 48c25.333 -19.333 51.333 -29 78 -29c18 0 31.667 3.5 41 10.5s14 16.167 14 27.5s-4.83301 20.333 -14.5 27s-23.167 10 -40.5 10h-41l26 90c-45.333 5.33301 -86 20.333 -122 45s-64.333 56.167 -85 94.5
s-31 80.833 -31 127.5c0 51.333 12 97.333 36 138s56.667 73 98 97s87.666 36 138.999 36c41.333 0 80.833 -8 118.5 -24s70.167 -39 97.5 -69l-84 -89c-19.333 21.333 -39.5 37.166 -60.5 47.499s-43.833 15.5 -68.5 15.5c-26.667 0 -50.5 -6.66699 -71.5 -20
s-37.667 -31.333 -50 -54s-18.5 -48.667 -18.5 -78c0 -28 6.16699 -53.5 18.5 -76.5s29.5 -41 51.5 -54s46.333 -19.5 73 -19.5c23.333 0 45.166 4.83301 65.499 14.5s39.833 24.167 58.5 43.5l82 -86c-23.333 -24.667 -50.666 -44.834 -81.999 -60.501
s-64.333 -25.5 -99 -29.5l-11 -38c29.333 -2 52.5 -11 69.5 -27s25.5 -36.667 25.5 -62c0 -28.667 -12.667 -52.667 -38 -72s-56.666 -29 -93.999 -29z" />
    <glyph glyph-name="egrave" unicode="&#xe8;" horiz-adv-x="586" 
d="M309 -10c-52 0 -99.167 12 -141.5 36s-75.833 56.333 -100.5 97s-37 86.334 -37 137.001s11.833 96.334 35.5 137.001s55.834 73 96.501 97s86 36 136 36s94.333 -12.333 133 -37s69.167 -58 91.5 -100s33.5 -89.667 33.5 -143v-36h-386
c6 -20.667 15.833 -39.334 29.5 -56.001s30.667 -29.667 51 -39s42.166 -14 65.499 -14s44.833 3.66699 64.5 11s36.5 17.666 50.5 30.999l90 -82c-32 -26 -64.833 -45 -98.5 -57s-71.5 -18 -113.5 -18zM168 312h252.999c-4.66699 20.667 -13.167 38.834 -25.5 54.501
s-27 28 -44 37s-35.833 13.5 -56.5 13.5c-21.333 0 -40.666 -4.33301 -57.999 -13s-31.833 -20.834 -43.5 -36.501s-20.167 -34.167 -25.5 -55.5zM254.999 608l-135 130h158l88 -130h-111z" />
    <glyph glyph-name="eacute" unicode="&#xe9;" horiz-adv-x="586" 
d="M309 -10c-52 0 -99.167 12 -141.5 36s-75.833 56.333 -100.5 97s-37 86.334 -37 137.001s11.833 96.334 35.5 137.001s55.834 73 96.501 97s86 36 136 36s94.333 -12.333 133 -37s69.167 -58 91.5 -100s33.5 -89.667 33.5 -143v-36h-386
c6 -20.667 15.833 -39.334 29.5 -56.001s30.667 -29.667 51 -39s42.166 -14 65.499 -14s44.833 3.66699 64.5 11s36.5 17.666 50.5 30.999l90 -82c-32 -26 -64.833 -45 -98.5 -57s-71.5 -18 -113.5 -18zM168 312h252.999c-4.66699 20.667 -13.167 38.834 -25.5 54.501
s-27 28 -44 37s-35.833 13.5 -56.5 13.5c-21.333 0 -40.666 -4.33301 -57.999 -13s-31.833 -20.834 -43.5 -36.501s-20.167 -34.167 -25.5 -55.5zM214.999 608l90 130h156l-135 -130h-111z" />
    <glyph glyph-name="ecircumflex" unicode="&#xea;" horiz-adv-x="586" 
d="M309 -10c-52 0 -99.167 12 -141.5 36s-75.833 56.333 -100.5 97s-37 86.334 -37 137.001s11.833 96.334 35.5 137.001s55.834 73 96.501 97s86 36 136 36s94.333 -12.333 133 -37s69.167 -58 91.5 -100s33.5 -89.667 33.5 -143v-36h-386
c6 -20.667 15.833 -39.334 29.5 -56.001s30.667 -29.667 51 -39s42.166 -14 65.499 -14s44.833 3.66699 64.5 11s36.5 17.666 50.5 30.999l90 -82c-32 -26 -64.833 -45 -98.5 -57s-71.5 -18 -113.5 -18zM168 312h252.999c-4.66699 20.667 -13.167 38.834 -25.5 54.501
s-27 28 -44 37s-35.833 13.5 -56.5 13.5c-21.333 0 -40.666 -4.33301 -57.999 -13s-31.833 -20.834 -43.5 -36.501s-20.167 -34.167 -25.5 -55.5zM367.999 605l-74 74l-73 -74h-110l115 136h140l115 -136h-113z" />
    <glyph glyph-name="edieresis" unicode="&#xeb;" horiz-adv-x="586" 
d="M309 -10c-52 0 -99.167 12 -141.5 36s-75.833 56.333 -100.5 97s-37 86.334 -37 137.001s11.833 96.334 35.5 137.001s55.834 73 96.501 97s86 36 136 36s94.333 -12.333 133 -37s69.167 -58 91.5 -100s33.5 -89.667 33.5 -143v-36h-386
c6 -20.667 15.833 -39.334 29.5 -56.001s30.667 -29.667 51 -39s42.166 -14 65.499 -14s44.833 3.66699 64.5 11s36.5 17.666 50.5 30.999l90 -82c-32 -26 -64.833 -45 -98.5 -57s-71.5 -18 -113.5 -18zM168 312h252.999c-4.66699 20.667 -13.167 38.834 -25.5 54.501
s-27 28 -44 37s-35.833 13.5 -56.5 13.5c-21.333 0 -40.666 -4.33301 -57.999 -13s-31.833 -20.834 -43.5 -36.501s-20.167 -34.167 -25.5 -55.5zM183.999 605c-20 0 -37 6.66699 -51 20s-21 30.666 -21 51.999c0 20.667 7 37.834 21 51.501s31 20.5 51 20.5
c20.667 0 37.834 -6.83301 51.501 -20.5s20.5 -30.834 20.5 -51.501c0 -21.333 -6.83301 -38.666 -20.5 -51.999s-30.834 -20 -51.501 -20zM407.999 605c-20 0 -37 6.66699 -51 20s-21 30.666 -21 51.999c0 20.667 7 37.834 21 51.501s31 20.5 51 20.5
c20.667 0 37.834 -6.83301 51.501 -20.5s20.5 -30.834 20.5 -51.501c0 -21.333 -6.83301 -38.666 -20.5 -51.999s-30.834 -20 -51.501 -20z" />
    <glyph glyph-name="igrave" unicode="&#xec;" horiz-adv-x="244" 
d="M54 0v521h137v-521h-137zM81 608l-135 130h158l88 -130h-111z" />
    <glyph glyph-name="iacute" unicode="&#xed;" horiz-adv-x="244" 
d="M54 0v521h137v-521h-137zM41 608l90 130h156l-135 -130h-111z" />
    <glyph glyph-name="icircumflex" unicode="&#xee;" horiz-adv-x="244" 
d="M54 0v521h137v-521h-137zM194 605l-74 74l-73 -74h-110l115 136h140l115 -136h-113z" />
    <glyph glyph-name="idieresis" unicode="&#xef;" horiz-adv-x="244" 
d="M54 0v521h137v-521h-137zM10 605c-20 0 -37 6.66699 -51 20s-21 30.666 -21 51.999c0 20.667 7 37.834 21 51.501s31 20.5 51 20.5c20.667 0 37.834 -6.83301 51.501 -20.5s20.5 -30.834 20.5 -51.501c0 -21.333 -6.83301 -38.666 -20.5 -51.999s-30.834 -20 -51.501 -20
zM234 605c-20 0 -37 6.66699 -51 20s-21 30.666 -21 51.999c0 20.667 7 37.834 21 51.501s31 20.5 51 20.5c20.667 0 37.834 -6.83301 51.501 -20.5s20.5 -30.834 20.5 -51.501c0 -21.333 -6.83301 -38.666 -20.5 -51.999s-30.834 -20 -51.501 -20z" />
    <glyph glyph-name="eth" unicode="&#xf0;" horiz-adv-x="597" 
d="M288 -9c-48 0 -91.667 11.3301 -131 33.9971s-70.333 53.167 -93 91.5s-34 81.5 -34 129.5c0 32 6.5 62.333 19.5 91s30.667 54 53 76s48 39.333 77 52s59.5 19 91.5 19c30 0 56.833 -4.5 80.5 -13.5s44.167 -22.5 61.5 -40.5c-5.33301 24.667 -15 48.834 -29 72.501
s-31.333 45.5 -52 65.5l-88 -56l-51 71l67 44c-12 8 -24.833 15.5 -38.5 22.5s-28.167 13.167 -43.5 18.5l70 92c22 -9.33301 42.833 -19.5 62.5 -30.5s38.167 -22.833 55.5 -35.5l98 63l51 -71l-81 -52c41.333 -43.333 73 -92.166 95 -146.499s33 -112.833 33 -175.5
c0 -65.333 -11.167 -122.166 -33.5 -170.499s-54 -85.5 -95 -111.5s-89.5 -39 -145.5 -39zM292 110.997c24 0 45.667 5.83301 65 17.5s34.666 27.334 45.999 47.001s17 41.5 17 65.5c0 24.667 -5.66699 46.667 -17 66s-26.666 34.666 -45.999 45.999s-41 17 -65 17
s-45.833 -5.66699 -65.5 -17s-35.334 -26.666 -47.001 -45.999s-17.5 -41.333 -17.5 -66c0 -24 5.83301 -45.833 17.5 -65.5s27.334 -35.334 47.001 -47.001s41.5 -17.5 65.5 -17.5z" />
    <glyph glyph-name="ntilde" unicode="&#xf1;" horiz-adv-x="593" 
d="M54 0l-0.000976562 521h137v-43c39.333 35.333 88 53 146 53c40.667 0 76.5 -8.83301 107.5 -26.5s55.167 -42 72.5 -73s26 -67.167 26 -108.5v-323h-137v303c0 34 -9.66699 60.833 -29 80.5s-45.666 29.5 -78.999 29.5c-23.333 0 -44 -4.5 -62 -13.5
s-33 -21.833 -45 -38.5v-361h-137zM188.999 597l-84.001 18c18 80.667 56 121 114 121c18.667 0 36.834 -4.16699 54.501 -12.5s34.5 -16.666 50.5 -24.999s30 -12.5 42 -12.5c11.333 0 20.333 4 27 12s12.334 22 17.001 42l82 -18c-8 -41.333 -21.5 -72 -40.5 -92
s-43.167 -30 -72.5 -30c-18 0 -35.833 4.16699 -53.5 12.5s-34.5 16.666 -50.5 24.999s-30.667 12.5 -44 12.5c-10.667 0 -19.334 -4 -26.001 -12s-12 -21.667 -16 -41z" />
    <glyph glyph-name="ograve" unicode="&#xf2;" horiz-adv-x="616" 
d="M308 -10c-52 0 -98.998 12 -140.998 36s-75.333 56.333 -100 97s-37 86.334 -37 137.001s12.167 96.5 36.5 137.5s57.666 73.5 99.999 97.5s89.5 36 141.5 36s99.167 -12 141.5 -36s75.666 -56.5 99.999 -97.5s36.5 -86.833 36.5 -137.5s-12.167 -96.334 -36.5 -137.001
s-57.5 -73 -99.5 -97s-89.333 -36 -142 -36zM308.002 109c27.333 0 51.833 6.66699 73.5 20s39 31.5 52 54.5s19.5 48.5 19.5 76.5c0 28.667 -6.5 54.334 -19.5 77.001s-30.333 40.834 -52 54.501s-46.167 20.5 -73.5 20.5c-26.667 0 -51 -6.83301 -73 -20.5
s-39.333 -31.834 -52 -54.501s-19 -48.334 -19 -77.001c0 -28 6.33301 -53.5 19 -76.5s30 -41.167 52 -54.5s46.333 -20 73 -20zM267.002 608l-135 130h158l88 -130h-111z" />
    <glyph glyph-name="oacute" unicode="&#xf3;" horiz-adv-x="616" 
d="M308 -10c-52 0 -98.998 12 -140.998 36s-75.333 56.333 -100 97s-37 86.334 -37 137.001s12.167 96.5 36.5 137.5s57.666 73.5 99.999 97.5s89.5 36 141.5 36s99.167 -12 141.5 -36s75.666 -56.5 99.999 -97.5s36.5 -86.833 36.5 -137.5s-12.167 -96.334 -36.5 -137.001
s-57.5 -73 -99.5 -97s-89.333 -36 -142 -36zM308.002 109c27.333 0 51.833 6.66699 73.5 20s39 31.5 52 54.5s19.5 48.5 19.5 76.5c0 28.667 -6.5 54.334 -19.5 77.001s-30.333 40.834 -52 54.501s-46.167 20.5 -73.5 20.5c-26.667 0 -51 -6.83301 -73 -20.5
s-39.333 -31.834 -52 -54.501s-19 -48.334 -19 -77.001c0 -28 6.33301 -53.5 19 -76.5s30 -41.167 52 -54.5s46.333 -20 73 -20zM227.002 608l90 130h156l-135 -130h-111z" />
    <glyph glyph-name="ocircumflex" unicode="&#xf4;" horiz-adv-x="616" 
d="M308 -10c-52 0 -98.998 12 -140.998 36s-75.333 56.333 -100 97s-37 86.334 -37 137.001s12.167 96.5 36.5 137.5s57.666 73.5 99.999 97.5s89.5 36 141.5 36s99.167 -12 141.5 -36s75.666 -56.5 99.999 -97.5s36.5 -86.833 36.5 -137.5s-12.167 -96.334 -36.5 -137.001
s-57.5 -73 -99.5 -97s-89.333 -36 -142 -36zM308.002 109c27.333 0 51.833 6.66699 73.5 20s39 31.5 52 54.5s19.5 48.5 19.5 76.5c0 28.667 -6.5 54.334 -19.5 77.001s-30.333 40.834 -52 54.501s-46.167 20.5 -73.5 20.5c-26.667 0 -51 -6.83301 -73 -20.5
s-39.333 -31.834 -52 -54.501s-19 -48.334 -19 -77.001c0 -28 6.33301 -53.5 19 -76.5s30 -41.167 52 -54.5s46.333 -20 73 -20zM380.002 605l-74 74l-73 -74h-110l115 136h140l115 -136h-113z" />
    <glyph glyph-name="otilde" unicode="&#xf5;" horiz-adv-x="616" 
d="M308 -10c-52 0 -98.998 12 -140.998 36s-75.333 56.333 -100 97s-37 86.334 -37 137.001s12.167 96.5 36.5 137.5s57.666 73.5 99.999 97.5s89.5 36 141.5 36s99.167 -12 141.5 -36s75.666 -56.5 99.999 -97.5s36.5 -86.833 36.5 -137.5s-12.167 -96.334 -36.5 -137.001
s-57.5 -73 -99.5 -97s-89.333 -36 -142 -36zM308.002 109c27.333 0 51.833 6.66699 73.5 20s39 31.5 52 54.5s19.5 48.5 19.5 76.5c0 28.667 -6.5 54.334 -19.5 77.001s-30.333 40.834 -52 54.501s-46.167 20.5 -73.5 20.5c-26.667 0 -51 -6.83301 -73 -20.5
s-39.333 -31.834 -52 -54.501s-19 -48.334 -19 -77.001c0 -28 6.33301 -53.5 19 -76.5s30 -41.167 52 -54.5s46.333 -20 73 -20zM198.002 597l-84.001 18c18 80.667 56 121 114 121c18.667 0 36.834 -4.16699 54.501 -12.5s34.5 -16.666 50.5 -24.999s30 -12.5 42 -12.5
c11.333 0 20.333 4 27 12s12.334 22 17.001 42l82 -18c-8 -41.333 -21.5 -72 -40.5 -92s-43.167 -30 -72.5 -30c-18 0 -35.833 4.16699 -53.5 12.5s-34.5 16.666 -50.5 24.999s-30.667 12.5 -44 12.5c-10.667 0 -19.334 -4 -26.001 -12s-12 -21.667 -16 -41z" />
    <glyph glyph-name="odieresis" unicode="&#xf6;" horiz-adv-x="616" 
d="M308 -10c-52 0 -98.998 12 -140.998 36s-75.333 56.333 -100 97s-37 86.334 -37 137.001s12.167 96.5 36.5 137.5s57.666 73.5 99.999 97.5s89.5 36 141.5 36s99.167 -12 141.5 -36s75.666 -56.5 99.999 -97.5s36.5 -86.833 36.5 -137.5s-12.167 -96.334 -36.5 -137.001
s-57.5 -73 -99.5 -97s-89.333 -36 -142 -36zM308.002 109c27.333 0 51.833 6.66699 73.5 20s39 31.5 52 54.5s19.5 48.5 19.5 76.5c0 28.667 -6.5 54.334 -19.5 77.001s-30.333 40.834 -52 54.501s-46.167 20.5 -73.5 20.5c-26.667 0 -51 -6.83301 -73 -20.5
s-39.333 -31.834 -52 -54.501s-19 -48.334 -19 -77.001c0 -28 6.33301 -53.5 19 -76.5s30 -41.167 52 -54.5s46.333 -20 73 -20zM196.002 605c-20 0 -37 6.66699 -51 20s-21 30.666 -21 51.999c0 20.667 7 37.834 21 51.501s31 20.5 51 20.5
c20.667 0 37.834 -6.83301 51.501 -20.5s20.5 -30.834 20.5 -51.501c0 -21.333 -6.83301 -38.666 -20.5 -51.999s-30.834 -20 -51.501 -20zM420.002 605c-20 0 -37 6.66699 -51 20s-21 30.666 -21 51.999c0 20.667 7 37.834 21 51.501s31 20.5 51 20.5
c20.667 0 37.834 -6.83301 51.501 -20.5s20.5 -30.834 20.5 -51.501c0 -21.333 -6.83301 -38.666 -20.5 -51.999s-30.834 -20 -51.501 -20z" />
    <glyph glyph-name="divide" unicode="&#xf7;" 
d="M300 495c-22 0 -40.833 7.99902 -56.5 23.999s-23.5 35 -23.5 57c0 22.667 7.83301 41.834 23.5 57.501s34.5 23.5 56.5 23.5s40.833 -7.83301 56.5 -23.5s23.5 -34.834 23.5 -57.501c0 -21.333 -7.83301 -40.166 -23.5 -56.499s-34.5 -24.5 -56.5 -24.5zM300 59.999
c-22 0 -40.833 8 -56.5 24s-23.5 35 -23.5 57c0 22.667 7.83301 41.834 23.5 57.501s34.5 23.5 56.5 23.5s40.833 -7.83301 56.5 -23.5s23.5 -34.834 23.5 -57.501c0 -22 -7.83301 -41 -23.5 -57s-34.5 -24 -56.5 -24zM83 306.999v103h434v-103h-434z" />
    <glyph glyph-name="oslash" unicode="&#xf8;" horiz-adv-x="616" 
d="M308 -10c-26.667 0 -52.332 3.33398 -76.999 10.001s-47.334 16.334 -68.001 29.001l-24 -29h-93l60 73c-24 24 -42.667 52.167 -56 84.5s-20 66.5 -20 102.5c0 50.667 12.333 96.5 37 137.5s58 73.5 100 97.5s89 36 141 36c26.667 0 52.167 -3.33301 76.5 -10
s46.833 -16.334 67.5 -29.001l24 29h94l-60 -72c23.333 -24.667 41.833 -53.167 55.5 -85.5s20.5 -66.833 20.5 -103.5c0 -50.667 -12.333 -96.334 -37 -137.001s-58 -73 -100 -97s-89 -36 -141 -36zM189.002 174.001l184 222c-9.33301 5.33301 -19.5 9.33301 -30.5 12
s-22.5 4 -34.5 4c-26.667 0 -51 -6.66699 -73 -20s-39.333 -31.5 -52 -54.5s-19 -48.833 -19 -77.5c0 -16 2.16699 -31.333 6.5 -46s10.5 -28 18.5 -40zM308.002 109.001c27.333 0 51.834 6.66602 73.501 19.999s38.834 31.5 51.501 54.5s19 48.5 19 76.5
c0 16.667 -2.16699 32.334 -6.5 47.001s-10.833 28 -19.5 40l-183 -222c9.33301 -4.66699 19.666 -8.5 30.999 -11.5s22.666 -4.5 33.999 -4.5z" />
    <glyph glyph-name="ugrave" unicode="&#xf9;" horiz-adv-x="593" 
d="M256 -10c-40 0 -75.5 8.83301 -106.5 26.5s-55.333 42.167 -73 73.5s-26.5 67.333 -26.5 108v323h137v-303c0 -33.333 9.83301 -60 29.5 -80s46.167 -30 79.5 -30c22.667 0 43.167 4.5 61.5 13.5s33.5 21.833 45.5 38.5v361h137v-521h-137v42
c-40 -34.667 -89 -52 -147 -52zM256 608l-135 130h158l88 -130h-111z" />
    <glyph glyph-name="uacute" unicode="&#xfa;" horiz-adv-x="593" 
d="M256 -10c-40 0 -75.5 8.83301 -106.5 26.5s-55.333 42.167 -73 73.5s-26.5 67.333 -26.5 108v323h137v-303c0 -33.333 9.83301 -60 29.5 -80s46.167 -30 79.5 -30c22.667 0 43.167 4.5 61.5 13.5s33.5 21.833 45.5 38.5v361h137v-521h-137v42
c-40 -34.667 -89 -52 -147 -52zM216 608l90 130h156l-135 -130h-111z" />
    <glyph glyph-name="ucircumflex" unicode="&#xfb;" horiz-adv-x="593" 
d="M256 -10c-40 0 -75.5 8.83301 -106.5 26.5s-55.333 42.167 -73 73.5s-26.5 67.333 -26.5 108v323h137v-303c0 -33.333 9.83301 -60 29.5 -80s46.167 -30 79.5 -30c22.667 0 43.167 4.5 61.5 13.5s33.5 21.833 45.5 38.5v361h137v-521h-137v42
c-40 -34.667 -89 -52 -147 -52zM369 605l-74 74l-73 -74h-110l115 136h140l115 -136h-113z" />
    <glyph glyph-name="udieresis" unicode="&#xfc;" horiz-adv-x="593" 
d="M256 -10c-40 0 -75.5 8.83301 -106.5 26.5s-55.333 42.167 -73 73.5s-26.5 67.333 -26.5 108v323h137v-303c0 -33.333 9.83301 -60 29.5 -80s46.167 -30 79.5 -30c22.667 0 43.167 4.5 61.5 13.5s33.5 21.833 45.5 38.5v361h137v-521h-137v42
c-40 -34.667 -89 -52 -147 -52zM185 605c-20 0 -37 6.66699 -51 20s-21 30.666 -21 51.999c0 20.667 7 37.834 21 51.501s31 20.5 51 20.5c20.667 0 37.834 -6.83301 51.501 -20.5s20.5 -30.834 20.5 -51.501c0 -21.333 -6.83301 -38.666 -20.5 -51.999
s-30.834 -20 -51.501 -20zM409 605c-20 0 -37 6.66699 -51 20s-21 30.666 -21 51.999c0 20.667 7 37.834 21 51.501s31 20.5 51 20.5c20.667 0 37.834 -6.83301 51.501 -20.5s20.5 -30.834 20.5 -51.501c0 -21.333 -6.83301 -38.666 -20.5 -51.999s-30.834 -20 -51.501 -20z
" />
    <glyph glyph-name="yacute" unicode="&#xfd;" horiz-adv-x="577" 
d="M105 -215c-12 0 -23.5 0.499023 -34.5 1.49902s-20.167 2.16699 -27.5 3.5v118c13.333 -2.66699 29.333 -4 48 -4c50 0 84.667 23.667 104 71l8 20l-203 526h151l130 -355l147 355h148l-240 -563c-18 -42 -37.667 -75.667 -59 -101s-45.833 -43.666 -73.5 -54.999
s-60.5 -17 -98.5 -17zM205 607.999l90 130h156l-135 -130h-111z" />
    <glyph glyph-name="thorn" unicode="&#xfe;" horiz-adv-x="634" 
d="M54 -209v909l137 30v-251c41.333 32.667 90 49 146 49c49.333 0 94 -12 134 -36s71.833 -56.167 95.5 -96.5s35.5 -85.5 35.5 -135.5s-12 -95.167 -36 -135.5s-56.333 -72.333 -97 -96s-86 -35.5 -136 -35.5c-26 0 -51 3.5 -75 10.5s-46.333 17.167 -67 30.5v-243h-137z
M315 411c-25.333 0 -48.502 -4.16797 -69.502 -12.501s-39.167 -20.833 -54.5 -37.5v-203c14.667 -15.333 32.834 -27.333 54.501 -36s44.834 -13 69.501 -13c28.667 0 54.5 6.66699 77.5 20s41.167 31.333 54.5 54s20 48.334 20 77.001s-6.66699 54.5 -20 77.5
s-31.5 41 -54.5 54s-48.833 19.5 -77.5 19.5z" />
    <glyph glyph-name="ydieresis" unicode="&#xff;" horiz-adv-x="577" 
d="M105 -215c-12 0 -23.5 0.499023 -34.5 1.49902s-20.167 2.16699 -27.5 3.5v118c13.333 -2.66699 29.333 -4 48 -4c50 0 84.667 23.667 104 71l8 20l-203 526h151l130 -355l147 355h148l-240 -563c-18 -42 -37.667 -75.667 -59 -101s-45.833 -43.666 -73.5 -54.999
s-60.5 -17 -98.5 -17zM174 604.999c-20 0 -37 6.66699 -51 20s-21 30.666 -21 51.999c0 20.667 7 37.834 21 51.501s31 20.5 51 20.5c20.667 0 37.834 -6.83301 51.501 -20.5s20.5 -30.834 20.5 -51.501c0 -21.333 -6.83301 -38.666 -20.5 -51.999s-30.834 -20 -51.501 -20z
M398 604.999c-20 0 -37 6.66699 -51 20s-21 30.666 -21 51.999c0 20.667 7 37.834 21 51.501s31 20.5 51 20.5c20.667 0 37.834 -6.83301 51.501 -20.5s20.5 -30.834 20.5 -51.501c0 -21.333 -6.83301 -38.666 -20.5 -51.999s-30.834 -20 -51.501 -20z" />
    <glyph glyph-name="Amacron" unicode="&#x100;" horiz-adv-x="732" 
d="M-4 0l288 700h167l285 -700h-157l-71 184h-289l-72 -184h-151zM264 300h200l-100 258zM206 804v86h320v-86h-320z" />
    <glyph glyph-name="amacron" unicode="&#x101;" horiz-adv-x="555" 
d="M220 -9c-37.333 0 -70.334 6.83301 -99.001 20.5s-51 32.5 -67 56.5s-24 51.667 -24 83c0 50 18.833 88.833 56.5 116.5s89.5 41.5 155.5 41.5c45.333 0 88 -7 128 -21v38c0 30 -9.33301 52.667 -28 68s-46 23 -82 23c-22 0 -45.667 -3.5 -71 -10.5
s-54.666 -17.833 -87.999 -32.5l-50 101c41.333 18.667 80.833 32.667 118.5 42s75.5 14 113.5 14c70 0 124.5 -16.833 163.5 -50.5s58.5 -81.167 58.5 -142.5v-338h-135v37c-21.333 -16 -44.333 -27.667 -69 -35s-51.667 -11 -81 -11zM159.999 154
c0 -20 8.66797 -35.833 26.001 -47.5s40.333 -17.5 69 -17.5c22.667 0 43.667 2.83301 63 8.5s36.666 14.167 51.999 25.5v76c-16.667 6.66699 -34 11.667 -52 15s-37.333 5 -58 5c-31.333 0 -55.833 -5.83301 -73.5 -17.5s-26.5 -27.5 -26.5 -47.5zM110 625v86h320v-86
h-320z" />
    <glyph glyph-name="Abreve" unicode="&#x102;" horiz-adv-x="732" 
d="M-4 0l288 700h167l285 -700h-157l-71 184h-289l-72 -184h-151zM264 300h200l-100 258zM366 779c-45.333 0 -83.332 11.833 -113.999 35.5s-51 56.834 -61 99.501l84 22c16 -53.333 46.333 -80 91 -80c22.667 0 41.667 6.66699 57 20s26.666 33.333 33.999 60l84 -22
c-10 -42.667 -30.333 -75.834 -61 -99.501s-68.667 -35.5 -114 -35.5z" />
    <glyph glyph-name="abreve" unicode="&#x103;" horiz-adv-x="555" 
d="M220 -9c-37.333 0 -70.334 6.83301 -99.001 20.5s-51 32.5 -67 56.5s-24 51.667 -24 83c0 50 18.833 88.833 56.5 116.5s89.5 41.5 155.5 41.5c45.333 0 88 -7 128 -21v38c0 30 -9.33301 52.667 -28 68s-46 23 -82 23c-22 0 -45.667 -3.5 -71 -10.5
s-54.666 -17.833 -87.999 -32.5l-50 101c41.333 18.667 80.833 32.667 118.5 42s75.5 14 113.5 14c70 0 124.5 -16.833 163.5 -50.5s58.5 -81.167 58.5 -142.5v-338h-135v37c-21.333 -16 -44.333 -27.667 -69 -35s-51.667 -11 -81 -11zM159.999 154
c0 -20 8.66797 -35.833 26.001 -47.5s40.333 -17.5 69 -17.5c22.667 0 43.667 2.83301 63 8.5s36.666 14.167 51.999 25.5v76c-16.667 6.66699 -34 11.667 -52 15s-37.333 5 -58 5c-31.333 0 -55.833 -5.83301 -73.5 -17.5s-26.5 -27.5 -26.5 -47.5zM270 600
c-45.333 0 -83.332 11.833 -113.999 35.5s-51 56.834 -61 99.501l84 22c16 -53.333 46.333 -80 91 -80c22.667 0 41.667 6.66699 57 20s26.666 33.333 33.999 60l84 -22c-10 -42.667 -30.333 -75.834 -61 -99.501s-68.667 -35.5 -114 -35.5z" />
    <glyph glyph-name="Aogonek" unicode="&#x104;" horiz-adv-x="732" 
d="M671 -221c-31.333 0 -56.667 8.50098 -76 25.501s-29 39.167 -29 66.5c0 24 7.33301 46.5 22 67.5s37.667 41.5 69 61.5h-78l-71 184h-289l-72 -184h-151l288 700h168l284 -700c-30.667 -18.667 -53.334 -36.334 -68.001 -53.001s-22 -34 -22 -52
c0 -14 4.33301 -24.833 13 -32.5s21 -11.5 37 -11.5c6.66699 0 13.667 1 21 3s13.333 5 18 9l20 -62c-11.333 -6.66699 -24.166 -12 -38.499 -16s-29.5 -6 -45.5 -6zM263.999 300.001h200l-99 258z" />
    <glyph glyph-name="aogonek" unicode="&#x105;" horiz-adv-x="555" 
d="M441 -221c-32 0 -57.668 8.50098 -77.001 25.501s-29 39.167 -29 66.5c0 24 7.33301 46.5 22 67.5s37.667 41.5 69 61.5h-56v37c-21.333 -16 -44.333 -27.667 -69 -35s-51.667 -11 -81 -11c-37.333 0 -70.333 6.83301 -99 20.5s-51 32.5 -67 56.5s-24 51.667 -24 83
c0 50 18.833 88.833 56.5 116.5s89.5 41.5 155.5 41.5c45.333 0 88 -7 128 -21v38c0 30 -9.33301 52.667 -28 68s-46 23 -82 23c-22 0 -45.667 -3.5 -71 -10.5s-54.666 -17.833 -87.999 -32.5l-50 101c41.333 18.667 80.833 32.667 118.5 42s75.5 14 113.5 14
c70 0 124.5 -16.833 163.5 -50.5s58.5 -81.167 58.5 -142.5v-338c-30.667 -18.667 -53.334 -36.334 -68.001 -53.001s-22 -34 -22 -52c0 -14 4.5 -24.833 13.5 -32.5s21.167 -11.5 36.5 -11.5c6.66699 0 13.667 1 21 3s13.666 5 18.999 9l19 -62
c-11.333 -6.66699 -24.166 -12 -38.499 -16s-29.166 -6 -44.499 -6zM254.999 89.001c22.667 0 43.668 2.83301 63.001 8.5s36.666 14.167 51.999 25.5v76c-16.667 6.66699 -34 11.667 -52 15s-37.333 5 -58 5c-31.333 0 -55.833 -5.83301 -73.5 -17.5
s-26.5 -27.5 -26.5 -47.5s8.66699 -35.833 26 -47.5s40.333 -17.5 69 -17.5z" />
    <glyph glyph-name="Cacute" unicode="&#x106;" horiz-adv-x="718" 
d="M408 -10c-52 0 -100.669 9.16211 -146.002 27.4951s-84.833 43.833 -118.5 76.5s-60 70.834 -79 114.501s-28.5 90.834 -28.5 141.501c0 51.333 9.5 98.833 28.5 142.5s45.5 81.834 79.5 114.501s73.5 58.167 118.5 76.5s93.5 27.5 145.5 27.5
c38.667 0 76 -5.33301 112 -16s69.5 -25.667 100.5 -45s57.5 -42.666 79.5 -69.999l-98 -97c-25.333 31.333 -54.5 55 -87.5 71s-68.5 24 -106.5 24c-31.333 0 -60.666 -5.83301 -87.999 -17.5s-51 -27.667 -71 -48s-35.667 -44.333 -47 -72s-17 -57.834 -17 -90.501
c0 -32 5.66699 -61.833 17 -89.5s27.333 -51.667 48 -72s44.834 -36.166 72.501 -47.499s57.834 -17 90.501 -17c36.667 0 71 7.66699 103 23s60.333 37.333 85 66l95 -94c-22 -26.667 -48.333 -49.667 -79 -69s-63.834 -34.166 -99.501 -44.499s-72.167 -15.5 -109.5 -15.5
zM325.998 786.995l90 130h156l-135 -130h-111z" />
    <glyph glyph-name="cacute" unicode="&#x107;" horiz-adv-x="532" 
d="M303 -10c-51.333 0 -97.665 11.834 -138.998 35.501s-74 56 -98 97s-36 86.833 -36 137.5c0 51.333 12 97.333 36 138s56.667 73 98 97s87.666 36 138.999 36c41.333 0 80.833 -8 118.5 -24s70.167 -39 97.5 -69l-84 -89c-19.333 21.333 -39.5 37.166 -60.5 47.499
s-43.833 15.5 -68.5 15.5c-26.667 0 -50.5 -6.66699 -71.5 -20s-37.667 -31.333 -50 -54s-18.5 -48.667 -18.5 -78c0 -28 6.16699 -53.5 18.5 -76.5s29.5 -41 51.5 -54s46.333 -19.5 73 -19.5c23.333 0 45.166 4.83301 65.499 14.5s39.833 24.167 58.5 43.5l82 -86
c-26.667 -28.667 -58.667 -51.167 -96 -67.5s-76 -24.5 -116 -24.5zM220.001 608.001l90 130h156l-135 -130h-111z" />
    <glyph glyph-name="Ccircumflex" unicode="&#x108;" horiz-adv-x="718" 
d="M408 -10c-52 0 -100.669 9.16211 -146.002 27.4951s-84.833 43.833 -118.5 76.5s-60 70.834 -79 114.501s-28.5 90.834 -28.5 141.501c0 51.333 9.5 98.833 28.5 142.5s45.5 81.834 79.5 114.501s73.5 58.167 118.5 76.5s93.5 27.5 145.5 27.5
c38.667 0 76 -5.33301 112 -16s69.5 -25.667 100.5 -45s57.5 -42.666 79.5 -69.999l-98 -97c-25.333 31.333 -54.5 55 -87.5 71s-68.5 24 -106.5 24c-31.333 0 -60.666 -5.83301 -87.999 -17.5s-51 -27.667 -71 -48s-35.667 -44.333 -47 -72s-17 -57.834 -17 -90.501
c0 -32 5.66699 -61.833 17 -89.5s27.333 -51.667 48 -72s44.834 -36.166 72.501 -47.499s57.834 -17 90.501 -17c36.667 0 71 7.66699 103 23s60.333 37.333 85 66l95 -94c-22 -26.667 -48.333 -49.667 -79 -69s-63.834 -34.166 -99.501 -44.499s-72.167 -15.5 -109.5 -15.5
zM478.998 783.995l-74 74l-73 -74h-110l115 136h140l115 -136h-113z" />
    <glyph glyph-name="ccircumflex" unicode="&#x109;" horiz-adv-x="532" 
d="M303 -10c-51.333 0 -97.665 11.834 -138.998 35.501s-74 56 -98 97s-36 86.833 -36 137.5c0 51.333 12 97.333 36 138s56.667 73 98 97s87.666 36 138.999 36c41.333 0 80.833 -8 118.5 -24s70.167 -39 97.5 -69l-84 -89c-19.333 21.333 -39.5 37.166 -60.5 47.499
s-43.833 15.5 -68.5 15.5c-26.667 0 -50.5 -6.66699 -71.5 -20s-37.667 -31.333 -50 -54s-18.5 -48.667 -18.5 -78c0 -28 6.16699 -53.5 18.5 -76.5s29.5 -41 51.5 -54s46.333 -19.5 73 -19.5c23.333 0 45.166 4.83301 65.499 14.5s39.833 24.167 58.5 43.5l82 -86
c-26.667 -28.667 -58.667 -51.167 -96 -67.5s-76 -24.5 -116 -24.5zM373.001 605.001l-74 74l-73 -74h-110l115 136h140l115 -136h-113z" />
    <glyph glyph-name="Cdotaccent" unicode="&#x10a;" horiz-adv-x="718" 
d="M408 -10c-52 0 -100.669 9.16211 -146.002 27.4951s-84.833 43.833 -118.5 76.5s-60 70.834 -79 114.501s-28.5 90.834 -28.5 141.501c0 51.333 9.5 98.833 28.5 142.5s45.5 81.834 79.5 114.501s73.5 58.167 118.5 76.5s93.5 27.5 145.5 27.5
c38.667 0 76 -5.33301 112 -16s69.5 -25.667 100.5 -45s57.5 -42.666 79.5 -69.999l-98 -97c-25.333 31.333 -54.5 55 -87.5 71s-68.5 24 -106.5 24c-31.333 0 -60.666 -5.83301 -87.999 -17.5s-51 -27.667 -71 -48s-35.667 -44.333 -47 -72s-17 -57.834 -17 -90.501
c0 -32 5.66699 -61.833 17 -89.5s27.333 -51.667 48 -72s44.834 -36.166 72.501 -47.499s57.834 -17 90.501 -17c36.667 0 71 7.66699 103 23s60.333 37.333 85 66l95 -94c-22 -26.667 -48.333 -49.667 -79 -69s-63.834 -34.166 -99.501 -44.499s-72.167 -15.5 -109.5 -15.5
zM406.998 780.995c-21.333 0 -39.166 7 -53.499 21s-21.5 31.333 -21.5 52c0 20 7.16699 37 21.5 51s32.166 21 53.499 21s39.166 -7 53.499 -21s21.5 -31 21.5 -51c0 -20.667 -7.16699 -38 -21.5 -52s-32.166 -21 -53.499 -21z" />
    <glyph glyph-name="cdotaccent" unicode="&#x10b;" horiz-adv-x="532" 
d="M303 -10c-51.333 0 -97.665 11.834 -138.998 35.501s-74 56 -98 97s-36 86.833 -36 137.5c0 51.333 12 97.333 36 138s56.667 73 98 97s87.666 36 138.999 36c41.333 0 80.833 -8 118.5 -24s70.167 -39 97.5 -69l-84 -89c-19.333 21.333 -39.5 37.166 -60.5 47.499
s-43.833 15.5 -68.5 15.5c-26.667 0 -50.5 -6.66699 -71.5 -20s-37.667 -31.333 -50 -54s-18.5 -48.667 -18.5 -78c0 -28 6.16699 -53.5 18.5 -76.5s29.5 -41 51.5 -54s46.333 -19.5 73 -19.5c23.333 0 45.166 4.83301 65.499 14.5s39.833 24.167 58.5 43.5l82 -86
c-26.667 -28.667 -58.667 -51.167 -96 -67.5s-76 -24.5 -116 -24.5zM301.001 602.001c-21.333 0 -39.166 7 -53.499 21s-21.5 31.333 -21.5 52c0 20 7.16699 37 21.5 51s32.166 21 53.499 21s39.166 -7 53.499 -21s21.5 -31 21.5 -51c0 -20.667 -7.16699 -38 -21.5 -52
s-32.166 -21 -53.499 -21z" />
    <glyph glyph-name="Ccaron" unicode="&#x10c;" horiz-adv-x="718" 
d="M408 -10c-52 0 -100.669 9.16211 -146.002 27.4951s-84.833 43.833 -118.5 76.5s-60 70.834 -79 114.501s-28.5 90.834 -28.5 141.501c0 51.333 9.5 98.833 28.5 142.5s45.5 81.834 79.5 114.501s73.5 58.167 118.5 76.5s93.5 27.5 145.5 27.5
c38.667 0 76 -5.33301 112 -16s69.5 -25.667 100.5 -45s57.5 -42.666 79.5 -69.999l-98 -97c-25.333 31.333 -54.5 55 -87.5 71s-68.5 24 -106.5 24c-31.333 0 -60.666 -5.83301 -87.999 -17.5s-51 -27.667 -71 -48s-35.667 -44.333 -47 -72s-17 -57.834 -17 -90.501
c0 -32 5.66699 -61.833 17 -89.5s27.333 -51.667 48 -72s44.834 -36.166 72.501 -47.499s57.834 -17 90.501 -17c36.667 0 71 7.66699 103 23s60.333 37.333 85 66l95 -94c-22 -26.667 -48.333 -49.667 -79 -69s-63.834 -34.166 -99.501 -44.499s-72.167 -15.5 -109.5 -15.5
zM334.998 919.995l73 -73l74 73h110l-115 -135h-140l-115 135h113z" />
    <glyph glyph-name="ccaron" unicode="&#x10d;" horiz-adv-x="532" 
d="M303 -10c-51.333 0 -97.665 11.834 -138.998 35.501s-74 56 -98 97s-36 86.833 -36 137.5c0 51.333 12 97.333 36 138s56.667 73 98 97s87.666 36 138.999 36c41.333 0 80.833 -8 118.5 -24s70.167 -39 97.5 -69l-84 -89c-19.333 21.333 -39.5 37.166 -60.5 47.499
s-43.833 15.5 -68.5 15.5c-26.667 0 -50.5 -6.66699 -71.5 -20s-37.667 -31.333 -50 -54s-18.5 -48.667 -18.5 -78c0 -28 6.16699 -53.5 18.5 -76.5s29.5 -41 51.5 -54s46.333 -19.5 73 -19.5c23.333 0 45.166 4.83301 65.499 14.5s39.833 24.167 58.5 43.5l82 -86
c-26.667 -28.667 -58.667 -51.167 -96 -67.5s-76 -24.5 -116 -24.5zM229.001 741.001l73 -73l74 73h110l-115 -135h-140l-115 135h113z" />
    <glyph glyph-name="Dcaron" unicode="&#x10e;" horiz-adv-x="738" 
d="M208 129h122c31.333 0 60.5 5.5 87.5 16.5s50.667 26.5 71 46.5s36 43.333 47 70s16.5 55.667 16.5 87s-5.66699 60.5 -17 87.5s-27 50.5 -47 70.5s-43.5 35.667 -70.5 47s-56.167 17 -87.5 17h-122v-442zM63 0l0.00195312 700.001h269
c52.667 0 101.334 -8.83301 146.001 -26.5s83.667 -42.5 117 -74.5s59.5 -69.333 78.5 -112s28.5 -88.667 28.5 -138c0 -50 -9.33301 -96 -28 -138s-44.834 -78.833 -78.501 -110.5s-72.834 -56.334 -117.501 -74.001s-93.334 -26.5 -146.001 -26.5h-269zM297.002 920.001
l73 -73l74 73h110l-115 -135h-140l-115 135h113z" />
    <glyph glyph-name="dcaron" unicode="&#x10f;" horiz-adv-x="764" 
d="M295 -7c-49.333 0 -94.002 12 -134.002 36s-71.833 56.167 -95.5 96.5s-35.5 85.5 -35.5 135.5s11.833 95.167 35.5 135.5s55.834 72.333 96.501 96s86.334 35.5 137.001 35.5c26 0 51 -3.5 75 -10.5s46.333 -17.167 67 -30.5v213l137 23v-723h-135v43
c-42.667 -33.333 -92 -50 -148 -50zM316.998 110c25.333 0 48.499 4.16797 69.499 12.501s39.167 20.833 54.5 37.5v203c-15.333 15.333 -33.666 27.333 -54.999 36s-44.333 13 -69 13c-28.667 0 -54.5 -6.5 -77.5 -19.5s-41.167 -31 -54.5 -54s-20 -48.833 -20 -77.5
s6.66699 -54.334 20 -77.001s31.5 -40.667 54.5 -54s48.833 -20 77.5 -20zM651.997 501.001l4 199l111 21l-36 -220h-79z" />
    <glyph glyph-name="Dcroat" unicode="&#x110;" horiz-adv-x="770" 
d="M95 0l-0.00195312 293.001h-78v115h78v292h269c52 0 100.333 -8.83301 145 -26.5s83.834 -42.5 117.501 -74.5s59.834 -69.333 78.501 -112s28 -88.667 28 -138c0 -50 -9.33301 -96 -28 -138s-44.667 -78.833 -78 -110.5s-72.5 -56.334 -117.5 -74.001
s-93.5 -26.5 -145.5 -26.5h-269zM239.998 129.001h122c31.333 0 60.333 5.5 87 16.5s50.167 26.5 70.5 46.5s36.166 43.333 47.499 70s17 55.667 17 87s-5.66699 60.5 -17 87.5s-27.166 50.5 -47.499 70.5s-43.833 35.667 -70.5 47s-55.667 17 -87 17h-122v-163h165v-115
h-165v-164z" />
    <glyph glyph-name="dcroat" unicode="&#x111;" horiz-adv-x="630" 
d="M295 -7c-49.333 0 -94.001 12 -134.001 36s-71.833 56.167 -95.5 96.5s-35.5 85.5 -35.5 135.5s11.833 95.167 35.5 135.5s55.834 72.333 96.501 96s86.334 35.5 137.001 35.5c25.333 0 50.166 -3.5 74.499 -10.5s46.833 -17.167 67.5 -30.5v92h-140v84h140v37l137 30
v-67h55v-84h-55v-579h-135v43c-42.667 -33.333 -92 -50 -148 -50zM316.999 110c25.333 0 48.499 4.16797 69.499 12.501s39.167 20.833 54.5 37.5v203c-15.333 15.333 -33.666 27.333 -54.999 36s-44.333 13 -69 13c-28.667 0 -54.5 -6.5 -77.5 -19.5s-41.167 -31 -54.5 -54
s-20 -48.833 -20 -77.5s6.66699 -54.334 20 -77.001s31.5 -40.667 54.5 -54s48.833 -20 77.5 -20z" />
    <glyph glyph-name="Emacron" unicode="&#x112;" horiz-adv-x="645" 
d="M63 0v700h538v-126h-393v-160h259v-122h-259v-166h397v-126h-542zM184 804v86h320v-86h-320z" />
    <glyph glyph-name="emacron" unicode="&#x113;" horiz-adv-x="586" 
d="M309 -10c-52 0 -99.167 12 -141.5 36s-75.833 56.333 -100.5 97s-37 86.334 -37 137.001s11.833 96.334 35.5 137.001s55.834 73 96.501 97s86 36 136 36s94.333 -12.333 133 -37s69.167 -58 91.5 -100s33.5 -89.667 33.5 -143v-36h-386
c6 -20.667 15.833 -39.334 29.5 -56.001s30.667 -29.667 51 -39s42.166 -14 65.499 -14s44.833 3.66699 64.5 11s36.5 17.666 50.5 30.999l90 -82c-32 -26 -64.833 -45 -98.5 -57s-71.5 -18 -113.5 -18zM168 312h252.999c-4.66699 20.667 -13.167 38.834 -25.5 54.501
s-27 28 -44 37s-35.833 13.5 -56.5 13.5c-21.333 0 -40.666 -4.33301 -57.999 -13s-31.833 -20.834 -43.5 -36.501s-20.167 -34.167 -25.5 -55.5zM135.999 625v86h320v-86h-320z" />
    <glyph glyph-name="Ebreve" unicode="&#x114;" horiz-adv-x="645" 
d="M63 0v700h538v-126h-393v-160h259v-122h-259v-166h397v-126h-542zM344 779c-45.333 0 -83.332 11.833 -113.999 35.5s-51 56.834 -61 99.501l84 22c16 -53.333 46.333 -80 91 -80c22.667 0 41.667 6.66699 57 20s26.666 33.333 33.999 60l84 -22
c-10 -42.667 -30.333 -75.834 -61 -99.501s-68.667 -35.5 -114 -35.5z" />
    <glyph glyph-name="ebreve" unicode="&#x115;" horiz-adv-x="586" 
d="M309 -10c-52 0 -99.167 12 -141.5 36s-75.833 56.333 -100.5 97s-37 86.334 -37 137.001s11.833 96.334 35.5 137.001s55.834 73 96.501 97s86 36 136 36s94.333 -12.333 133 -37s69.167 -58 91.5 -100s33.5 -89.667 33.5 -143v-36h-386
c6 -20.667 15.833 -39.334 29.5 -56.001s30.667 -29.667 51 -39s42.166 -14 65.499 -14s44.833 3.66699 64.5 11s36.5 17.666 50.5 30.999l90 -82c-32 -26 -64.833 -45 -98.5 -57s-71.5 -18 -113.5 -18zM168 312h252.999c-4.66699 20.667 -13.167 38.834 -25.5 54.501
s-27 28 -44 37s-35.833 13.5 -56.5 13.5c-21.333 0 -40.666 -4.33301 -57.999 -13s-31.833 -20.834 -43.5 -36.501s-20.167 -34.167 -25.5 -55.5zM295.999 600c-45.333 0 -83.332 11.833 -113.999 35.5s-51 56.834 -61 99.501l84 22c16 -53.333 46.333 -80 91 -80
c22.667 0 41.667 6.66699 57 20s26.666 33.333 33.999 60l84 -22c-10 -42.667 -30.333 -75.834 -61 -99.501s-68.667 -35.5 -114 -35.5z" />
    <glyph glyph-name="Edotaccent" unicode="&#x116;" horiz-adv-x="645" 
d="M63 0v700h538v-126h-393v-160h259v-122h-259v-166h397v-126h-542zM344 781c-21.333 0 -39.166 7 -53.499 21s-21.5 31.333 -21.5 52c0 20 7.16699 37 21.5 51s32.166 21 53.499 21s39.166 -7 53.499 -21s21.5 -31 21.5 -51c0 -20.667 -7.16699 -38 -21.5 -52
s-32.166 -21 -53.499 -21z" />
    <glyph glyph-name="edotaccent" unicode="&#x117;" horiz-adv-x="586" 
d="M309 -10c-52 0 -99.167 12 -141.5 36s-75.833 56.333 -100.5 97s-37 86.334 -37 137.001s11.833 96.334 35.5 137.001s55.834 73 96.501 97s86 36 136 36s94.333 -12.333 133 -37s69.167 -58 91.5 -100s33.5 -89.667 33.5 -143v-36h-386
c6 -20.667 15.833 -39.334 29.5 -56.001s30.667 -29.667 51 -39s42.166 -14 65.499 -14s44.833 3.66699 64.5 11s36.5 17.666 50.5 30.999l90 -82c-32 -26 -64.833 -45 -98.5 -57s-71.5 -18 -113.5 -18zM168 312h252.999c-4.66699 20.667 -13.167 38.834 -25.5 54.501
s-27 28 -44 37s-35.833 13.5 -56.5 13.5c-21.333 0 -40.666 -4.33301 -57.999 -13s-31.833 -20.834 -43.5 -36.501s-20.167 -34.167 -25.5 -55.5zM295.999 602c-21.333 0 -39.166 7 -53.499 21s-21.5 31.333 -21.5 52c0 20 7.16699 37 21.5 51s32.166 21 53.499 21
s39.166 -7 53.499 -21s21.5 -31 21.5 -51c0 -20.667 -7.16699 -38 -21.5 -52s-32.166 -21 -53.499 -21z" />
    <glyph glyph-name="Eogonek" unicode="&#x118;" horiz-adv-x="645" 
d="M623 -199c-10.667 -6.66699 -23.334 -11.999 -38.001 -15.999s-29.667 -6 -45 -6c-31.333 0 -56.666 8.5 -75.999 25.5s-29 39.167 -29 66.5c0 24 7.16699 46.5 21.5 67.5s37.166 41.5 68.499 61.5h-462v700h538v-126h-393v-160h259v-122h-259v-166h397v-126
c-31.333 -18.667 -54.166 -36.334 -68.499 -53.001s-21.5 -34 -21.5 -52c0 -14 4.33301 -24.833 13 -32.5s21 -11.5 37 -11.5c6.66699 0 13.5 1 20.5 3s13.167 5 18.5 9z" />
    <glyph glyph-name="eogonek" unicode="&#x119;" horiz-adv-x="586" 
d="M329 -221c-31.333 0 -56.667 8.50391 -76 25.5039s-29 39.167 -29 66.5c0 22 6.33301 42.667 19 62s32.334 38.333 59.001 57c-52 2 -98.333 15 -139 39s-73 56.167 -97 96.5s-36 85.166 -36 134.499c0 50.667 11.833 96.334 35.5 137.001s55.834 73 96.501 97
s86 36 136 36s94.333 -12.333 133 -37s69.167 -58 91.5 -100s33.5 -89.667 33.5 -143v-36h-386c6 -20.667 15.833 -39.334 29.5 -56.001s30.667 -29.667 51 -39s42.166 -14 65.499 -14s44.833 3.66699 64.5 11s36.5 17.666 50.5 30.999l90 -82
c-20.667 -16.667 -41.334 -30.334 -62.001 -41.001s-42.667 -18.667 -66 -24c-30.667 -18.667 -53.167 -36.334 -67.5 -53.001s-21.5 -34 -21.5 -52c0 -14 4.33301 -24.833 13 -32.5s21 -11.5 37 -11.5c6.66699 0 13.5 1 20.5 3s13.167 5 18.5 9l20 -62
c-11.333 -6.66699 -24.333 -12 -39 -16s-29.667 -6 -45 -6zM167.999 312.004h252.999c-4.66699 20.667 -13.167 38.834 -25.5 54.501s-27 28 -44 37s-35.833 13.5 -56.5 13.5c-21.333 0 -40.666 -4.33301 -57.999 -13s-31.833 -20.834 -43.5 -36.501
s-20.167 -34.167 -25.5 -55.5z" />
    <glyph glyph-name="Ecaron" unicode="&#x11a;" horiz-adv-x="645" 
d="M63 0v700h538v-126h-393v-160h259v-122h-259v-166h397v-126h-542zM272 920l73 -73l74 73h110l-115 -135h-140l-115 135h113z" />
    <glyph glyph-name="ecaron" unicode="&#x11b;" horiz-adv-x="586" 
d="M309 -10c-52 0 -99.167 12 -141.5 36s-75.833 56.333 -100.5 97s-37 86.334 -37 137.001s11.833 96.334 35.5 137.001s55.834 73 96.501 97s86 36 136 36s94.333 -12.333 133 -37s69.167 -58 91.5 -100s33.5 -89.667 33.5 -143v-36h-386
c6 -20.667 15.833 -39.334 29.5 -56.001s30.667 -29.667 51 -39s42.166 -14 65.499 -14s44.833 3.66699 64.5 11s36.5 17.666 50.5 30.999l90 -82c-32 -26 -64.833 -45 -98.5 -57s-71.5 -18 -113.5 -18zM168 312h252.999c-4.66699 20.667 -13.167 38.834 -25.5 54.501
s-27 28 -44 37s-35.833 13.5 -56.5 13.5c-21.333 0 -40.666 -4.33301 -57.999 -13s-31.833 -20.834 -43.5 -36.501s-20.167 -34.167 -25.5 -55.5zM223.999 741l73 -73l74 73h110l-115 -135h-140l-115 135h113z" />
    <glyph glyph-name="Gcircumflex" unicode="&#x11c;" horiz-adv-x="794" 
d="M407 -11c-52 0 -100.33 9.16699 -144.997 27.5s-84 44 -118 77s-60.5 71.333 -79.5 115s-28.5 90.834 -28.5 141.501s9.5 97.834 28.5 141.501s45.167 82 78.5 115s72.5 58.667 117.5 77s93.167 27.5 144.5 27.5c58 0 112.667 -11.5 164 -34.5
s93.666 -55.167 126.999 -96.5l-101 -93c-24 30 -52.333 52.667 -85 68s-67.667 23 -105 23c-31.333 0 -60.333 -5.83301 -87 -17.5s-50 -27.667 -70 -48s-35.5 -44.333 -46.5 -72s-16.5 -57.834 -16.5 -90.501s5.66699 -63 17 -91s27.166 -52.167 47.499 -72.5
s44 -36.333 71 -48s56.5 -17.5 88.5 -17.5c33.333 0 63.333 6.16699 90 18.5s49.167 29.666 67.5 51.999s30.5 47.5 36.5 75.5h-207v126h362v-44c0 -52 -8.83301 -99.833 -26.5 -143.5s-42.167 -81.667 -73.5 -114s-68.333 -57.5 -111 -75.5s-89.334 -27 -140.001 -27z
M477.003 784l-74 74l-73 -74h-110l115 136h140l115 -136h-113z" />
    <glyph glyph-name="gcircumflex" unicode="&#x11d;" horiz-adv-x="627" 
d="M316 -214c-40 0 -78.666 4.16602 -115.999 12.499s-71 20.166 -101 35.499l48 106c28.667 -14 56.667 -24.333 84 -31s54.666 -10 81.999 -10c40.667 0 71.5 8.66699 92.5 26s31.5 43.333 31.5 78v41c-42.667 -31.333 -90.334 -47 -143.001 -47
c-49.333 0 -93.833 11.833 -133.5 35.5s-71.334 55.834 -95.001 96.501s-35.5 85.667 -35.5 135s11.833 94 35.5 134s55.834 71.833 96.501 95.5s86 35.5 136 35.5c25.333 0 50 -3.66699 74 -11s46.333 -17.666 67 -30.999v34h135v-520
c0 -68.667 -22.167 -121.667 -66.5 -159s-108.166 -56 -191.499 -56zM315.001 112.999c25.333 0 48.333 4.16895 69 12.502s38.334 20.166 53.001 35.499v204c-14.667 14.667 -32.5 26.167 -53.5 34.5s-43.5 12.5 -67.5 12.5c-28.667 0 -54.334 -6.5 -77.001 -19.5
s-40.667 -30.667 -54 -53s-20 -47.5 -20 -75.5c0 -28.667 6.5 -54.334 19.5 -77.001s31 -40.667 54 -54s48.5 -20 76.5 -20zM384.001 605.001l-74 74l-73 -74h-110l115 136h140l115 -136h-113z" />
    <glyph glyph-name="Gbreve" unicode="&#x11e;" horiz-adv-x="794" 
d="M407 -11c-52 0 -100.33 9.16699 -144.997 27.5s-84 44 -118 77s-60.5 71.333 -79.5 115s-28.5 90.834 -28.5 141.501s9.5 97.834 28.5 141.501s45.167 82 78.5 115s72.5 58.667 117.5 77s93.167 27.5 144.5 27.5c58 0 112.667 -11.5 164 -34.5
s93.666 -55.167 126.999 -96.5l-101 -93c-24 30 -52.333 52.667 -85 68s-67.667 23 -105 23c-31.333 0 -60.333 -5.83301 -87 -17.5s-50 -27.667 -70 -48s-35.5 -44.333 -46.5 -72s-16.5 -57.834 -16.5 -90.501s5.66699 -63 17 -91s27.166 -52.167 47.499 -72.5
s44 -36.333 71 -48s56.5 -17.5 88.5 -17.5c33.333 0 63.333 6.16699 90 18.5s49.167 29.666 67.5 51.999s30.5 47.5 36.5 75.5h-207v126h362v-44c0 -52 -8.83301 -99.833 -26.5 -143.5s-42.167 -81.667 -73.5 -114s-68.333 -57.5 -111 -75.5s-89.334 -27 -140.001 -27z
M405.003 779c-45.333 0 -83.332 11.833 -113.999 35.5s-51 56.834 -61 99.501l84 22c16 -53.333 46.333 -80 91 -80c22.667 0 41.667 6.66699 57 20s26.666 33.333 33.999 60l84 -22c-10 -42.667 -30.333 -75.834 -61 -99.501s-68.667 -35.5 -114 -35.5z" />
    <glyph glyph-name="gbreve" unicode="&#x11f;" horiz-adv-x="627" 
d="M316 -214c-40 0 -78.666 4.16602 -115.999 12.499s-71 20.166 -101 35.499l48 106c28.667 -14 56.667 -24.333 84 -31s54.666 -10 81.999 -10c40.667 0 71.5 8.66699 92.5 26s31.5 43.333 31.5 78v41c-42.667 -31.333 -90.334 -47 -143.001 -47
c-49.333 0 -93.833 11.833 -133.5 35.5s-71.334 55.834 -95.001 96.501s-35.5 85.667 -35.5 135s11.833 94 35.5 134s55.834 71.833 96.501 95.5s86 35.5 136 35.5c25.333 0 50 -3.66699 74 -11s46.333 -17.666 67 -30.999v34h135v-520
c0 -68.667 -22.167 -121.667 -66.5 -159s-108.166 -56 -191.499 -56zM315.001 112.999c25.333 0 48.333 4.16895 69 12.502s38.334 20.166 53.001 35.499v204c-14.667 14.667 -32.5 26.167 -53.5 34.5s-43.5 12.5 -67.5 12.5c-28.667 0 -54.334 -6.5 -77.001 -19.5
s-40.667 -30.667 -54 -53s-20 -47.5 -20 -75.5c0 -28.667 6.5 -54.334 19.5 -77.001s31 -40.667 54 -54s48.5 -20 76.5 -20zM312.001 600.001c-45.333 0 -83.332 11.833 -113.999 35.5s-51 56.834 -61 99.501l84 22c16 -53.333 46.333 -80 91 -80
c22.667 0 41.667 6.66699 57 20s26.666 33.333 33.999 60l84 -22c-10 -42.667 -30.333 -75.834 -61 -99.501s-68.667 -35.5 -114 -35.5z" />
    <glyph glyph-name="Gdotaccent" unicode="&#x120;" horiz-adv-x="794" 
d="M407 -11c-52 0 -100.33 9.16699 -144.997 27.5s-84 44 -118 77s-60.5 71.333 -79.5 115s-28.5 90.834 -28.5 141.501s9.5 97.834 28.5 141.501s45.167 82 78.5 115s72.5 58.667 117.5 77s93.167 27.5 144.5 27.5c58 0 112.667 -11.5 164 -34.5
s93.666 -55.167 126.999 -96.5l-101 -93c-24 30 -52.333 52.667 -85 68s-67.667 23 -105 23c-31.333 0 -60.333 -5.83301 -87 -17.5s-50 -27.667 -70 -48s-35.5 -44.333 -46.5 -72s-16.5 -57.834 -16.5 -90.501s5.66699 -63 17 -91s27.166 -52.167 47.499 -72.5
s44 -36.333 71 -48s56.5 -17.5 88.5 -17.5c33.333 0 63.333 6.16699 90 18.5s49.167 29.666 67.5 51.999s30.5 47.5 36.5 75.5h-207v126h362v-44c0 -52 -8.83301 -99.833 -26.5 -143.5s-42.167 -81.667 -73.5 -114s-68.333 -57.5 -111 -75.5s-89.334 -27 -140.001 -27z
M405.003 781c-21.333 0 -39.166 7 -53.499 21s-21.5 31.333 -21.5 52c0 20 7.16699 37 21.5 51s32.166 21 53.499 21s39.166 -7 53.499 -21s21.5 -31 21.5 -51c0 -20.667 -7.16699 -38 -21.5 -52s-32.166 -21 -53.499 -21z" />
    <glyph glyph-name="gdotaccent" unicode="&#x121;" horiz-adv-x="627" 
d="M316 -214c-40 0 -78.666 4.16602 -115.999 12.499s-71 20.166 -101 35.499l48 106c28.667 -14 56.667 -24.333 84 -31s54.666 -10 81.999 -10c40.667 0 71.5 8.66699 92.5 26s31.5 43.333 31.5 78v41c-42.667 -31.333 -90.334 -47 -143.001 -47
c-49.333 0 -93.833 11.833 -133.5 35.5s-71.334 55.834 -95.001 96.501s-35.5 85.667 -35.5 135s11.833 94 35.5 134s55.834 71.833 96.501 95.5s86 35.5 136 35.5c25.333 0 50 -3.66699 74 -11s46.333 -17.666 67 -30.999v34h135v-520
c0 -68.667 -22.167 -121.667 -66.5 -159s-108.166 -56 -191.499 -56zM315.001 112.999c25.333 0 48.333 4.16895 69 12.502s38.334 20.166 53.001 35.499v204c-14.667 14.667 -32.5 26.167 -53.5 34.5s-43.5 12.5 -67.5 12.5c-28.667 0 -54.334 -6.5 -77.001 -19.5
s-40.667 -30.667 -54 -53s-20 -47.5 -20 -75.5c0 -28.667 6.5 -54.334 19.5 -77.001s31 -40.667 54 -54s48.5 -20 76.5 -20zM312.001 602.001c-21.333 0 -39.166 7 -53.499 21s-21.5 31.333 -21.5 52c0 20 7.16699 37 21.5 51s32.166 21 53.499 21s39.166 -7 53.499 -21
s21.5 -31 21.5 -51c0 -20.667 -7.16699 -38 -21.5 -52s-32.166 -21 -53.499 -21z" />
    <glyph glyph-name="Gcommaaccent" unicode="&#x122;" horiz-adv-x="794" 
d="M407 -11c-52 0 -100.33 9.16699 -144.997 27.5s-84 44 -118 77s-60.5 71.333 -79.5 115s-28.5 90.834 -28.5 141.501s9.5 97.834 28.5 141.501s45.167 82 78.5 115s72.5 58.667 117.5 77s93.167 27.5 144.5 27.5c58 0 112.667 -11.5 164 -34.5
s93.666 -55.167 126.999 -96.5l-101 -93c-24 30 -52.333 52.667 -85 68s-67.667 23 -105 23c-31.333 0 -60.333 -5.83301 -87 -17.5s-50 -27.667 -70 -48s-35.5 -44.333 -46.5 -72s-16.5 -57.834 -16.5 -90.501s5.66699 -63 17 -91s27.166 -52.167 47.499 -72.5
s44 -36.333 71 -48s56.5 -17.5 88.5 -17.5c33.333 0 63.333 6.16699 90 18.5s49.167 29.666 67.5 51.999s30.5 47.5 36.5 75.5h-207v126h362v-44c0 -52 -8.83301 -99.833 -26.5 -143.5s-42.167 -81.667 -73.5 -114s-68.333 -57.5 -111 -75.5s-89.334 -27 -140.001 -27z
M294.003 -286l51 205h129l-81 -205h-99z" />
    <glyph glyph-name="gcommaaccent" unicode="&#x123;" horiz-adv-x="626" 
d="M316 -214c-40 0 -78.666 4.16602 -115.999 12.499s-71 20.166 -101 35.499l48 106c28.667 -14 56.667 -24.333 84 -31s54.666 -10 81.999 -10c40.667 0 71.5 8.66699 92.5 26s31.5 43.333 31.5 78v41c-42.667 -31.333 -90.334 -47 -143.001 -47
c-49.333 0 -93.833 11.833 -133.5 35.5s-71.334 55.834 -95.001 96.501s-35.5 85.667 -35.5 135s11.833 94 35.5 134s55.834 71.833 96.501 95.5s86 35.5 136 35.5c25.333 0 50 -3.66699 74 -11s46.333 -17.666 67 -30.999v34h135v-520
c0 -68.667 -22.167 -121.667 -66.5 -159s-108.166 -56 -191.499 -56zM315.001 112.999c25.333 0 48.333 4.16895 69 12.502s38.334 20.166 53.001 35.499v204c-14.667 14.667 -32.5 26.167 -53.5 34.5s-43.5 12.5 -67.5 12.5c-28.667 0 -54.334 -6.5 -77.001 -19.5
s-40.667 -30.667 -54 -53s-20 -47.5 -20 -75.5c0 -28.667 6.5 -54.334 19.5 -77.001s31 -40.667 54 -54s48.5 -20 76.5 -20zM429.001 819.001l-51 -205h-129l81 205h99z" />
    <glyph glyph-name="Hcircumflex" unicode="&#x124;" horiz-adv-x="739" 
d="M63 0v700h145v-282h322v282h145v-700h-145v287h-322v-287h-145zM441 784l-74 74l-73 -74h-110l115 136h140l115 -136h-113z" />
    <glyph glyph-name="hcircumflex" unicode="&#x125;" horiz-adv-x="593" 
d="M54 0l-0.000976562 700l137 30v-252c39.333 35.333 88 53 146 53c40.667 0 76.5 -8.83301 107.5 -26.5s55.167 -42 72.5 -73s26 -67.167 26 -108.5v-323h-137v303c0 34 -9.66699 60.833 -29 80.5s-45.666 29.5 -78.999 29.5c-23.333 0 -44 -4.5 -62 -13.5
s-33 -21.833 -45 -38.5v-361h-137zM192.999 784l-74 74l-73 -74h-110l115 136h140l115 -136h-113z" />
    <glyph glyph-name="Hbar" unicode="&#x126;" horiz-adv-x="756" 
d="M72 0v498h-62v114h62v88h145v-88h322v88h145v-88h62v-114h-62v-498h-145v287h-322v-287h-145zM217 418h322v80h-322v-80z" />
    <glyph glyph-name="hbar" unicode="&#x127;" horiz-adv-x="593" 
d="M54 0l-0.000976562 579h-58v84h58v37l137 30v-67h138v-84h-138v-101c39.333 35.333 88 53 146 53c40.667 0 76.5 -8.83301 107.5 -26.5s55.167 -42 72.5 -73s26 -67.167 26 -108.5v-323h-137v303c0 34 -9.66699 60.833 -29 80.5s-45.666 29.5 -78.999 29.5
c-23.333 0 -44 -4.5 -62 -13.5s-33 -21.833 -45 -38.5v-361h-137z" />
    <glyph glyph-name="Itilde" unicode="&#x128;" horiz-adv-x="272" 
d="M63 0v700h145v-700h-145zM26 776l-84.001 18c18 80.667 56 121 114 121c18.667 0 36.834 -4.16699 54.501 -12.5s34.5 -16.666 50.5 -24.999s30 -12.5 42 -12.5c11.333 0 20.333 4 27 12s12.334 22 17.001 42l82 -18c-8 -41.333 -21.5 -72 -40.5 -92
s-43.167 -30 -72.5 -30c-18 0 -35.833 4.16699 -53.5 12.5s-34.5 16.666 -50.5 24.999s-30.667 12.5 -44 12.5c-10.667 0 -19.334 -4 -26.001 -12s-12 -21.667 -16 -41z" />
    <glyph glyph-name="itilde" unicode="&#x129;" horiz-adv-x="244" 
d="M54 0v521h137v-521h-137zM12 597l-84.001 18c18 80.667 56 121 114 121c18.667 0 36.834 -4.16699 54.501 -12.5s34.5 -16.666 50.5 -24.999s30 -12.5 42 -12.5c11.333 0 20.333 4 27 12s12.334 22 17.001 42l82 -18c-8 -41.333 -21.5 -72 -40.5 -92
s-43.167 -30 -72.5 -30c-18 0 -35.833 4.16699 -53.5 12.5s-34.5 16.666 -50.5 24.999s-30.667 12.5 -44 12.5c-10.667 0 -19.334 -4 -26.001 -12s-12 -21.667 -16 -41z" />
    <glyph glyph-name="Imacron" unicode="&#x12a;" horiz-adv-x="272" 
d="M63 0v700h145v-700h-145zM-24 804v86h320v-86h-320z" />
    <glyph glyph-name="imacron" unicode="&#x12b;" horiz-adv-x="244" 
d="M54 0v521h137v-521h-137zM-38 625v86h320v-86h-320z" />
    <glyph glyph-name="Ibreve" unicode="&#x12c;" horiz-adv-x="272" 
d="M63 0v700h145v-700h-145zM136 779c-45.333 0 -83.332 11.833 -113.999 35.5s-51 56.834 -61 99.501l84 22c16 -53.333 46.333 -80 91 -80c22.667 0 41.667 6.66699 57 20s26.666 33.333 33.999 60l84 -22c-10 -42.667 -30.333 -75.834 -61 -99.501
s-68.667 -35.5 -114 -35.5z" />
    <glyph glyph-name="ibreve" unicode="&#x12d;" horiz-adv-x="244" 
d="M54 0v521h137v-521h-137zM122 600c-45.333 0 -83.332 11.833 -113.999 35.5s-51 56.834 -61 99.501l84 22c16 -53.333 46.333 -80 91 -80c22.667 0 41.667 6.66699 57 20s26.666 33.333 33.999 60l84 -22c-10 -42.667 -30.333 -75.834 -61 -99.501
s-68.667 -35.5 -114 -35.5z" />
    <glyph glyph-name="Iogonek" unicode="&#x12e;" horiz-adv-x="272" 
d="M144 -221c-32 0 -57.667 8.50098 -77 25.501s-29 39.167 -29 66.5c0 24 7.33301 46.5 22 67.5s37.667 41.5 69 61.5h-66v700h145v-700c-30.667 -18.667 -53.334 -36.334 -68.001 -53.001s-22 -34 -22 -52c0 -14 4.5 -24.833 13.5 -32.5s21.167 -11.5 36.5 -11.5
c6.66699 0 13.667 1 21 3s13.666 5 18.999 9l19 -62c-11.333 -6.66699 -24.166 -12 -38.499 -16s-29.166 -6 -44.499 -6z" />
    <glyph glyph-name="iogonek" unicode="&#x12f;" horiz-adv-x="244" 
d="M122 583c-21.333 0 -39.666 7.66699 -54.999 23s-23 33.666 -23 54.999c0 22 7.66699 40.5 23 55.5s33.666 22.5 54.999 22.5c22 0 40.5 -7.5 55.5 -22.5s22.5 -33.5 22.5 -55.5c0 -21.333 -7.5 -39.666 -22.5 -54.999s-33.5 -23 -55.5 -23zM126 -221
c-32 0 -57.498 8.50098 -76.498 25.501s-28.5 39.167 -28.5 66.5c0 24 7.16699 46.5 21.5 67.5s37.166 41.5 68.499 61.5h-57v521h137v-521c-31.333 -18.667 -54.333 -36.334 -69 -53.001s-22 -34 -22 -52c0 -14 4.5 -24.833 13.5 -32.5s21.5 -11.5 37.5 -11.5
c6.66699 0 13.5 1 20.5 3s13.167 5 18.5 9l19 -62c-10.667 -6.66699 -23.334 -12 -38.001 -16s-29.667 -6 -45 -6z" />
    <glyph glyph-name="Idotaccent" unicode="&#x130;" horiz-adv-x="272" 
d="M63 0v700h145v-700h-145zM136 781c-21.333 0 -39.166 7 -53.499 21s-21.5 31.333 -21.5 52c0 20 7.16699 37 21.5 51s32.166 21 53.499 21s39.166 -7 53.499 -21s21.5 -31 21.5 -51c0 -20.667 -7.16699 -38 -21.5 -52s-32.166 -21 -53.499 -21z" />
    <glyph glyph-name="dotlessi" unicode="&#x131;" horiz-adv-x="244" 
d="M54 0v521h137v-521h-137z" />
    <glyph glyph-name="IJ" unicode="&#x132;" horiz-adv-x="913" 
d="M63 0v700h145v-700h-145zM572 -10c-70 0 -129.332 17.666 -177.999 52.999s-83.667 86 -105 152l134 51c14.667 -42.667 34.167 -74 58.5 -94s54.5 -30 90.5 -30c43.333 0 78.166 14 104.499 42s39.5 65.333 39.5 112v424h145v-428c0 -56.667 -12 -106.167 -36 -148.5
s-57.667 -75.166 -101 -98.499s-94 -35 -152 -35z" />
    <glyph glyph-name="ij" unicode="&#x133;" horiz-adv-x="482" 
d="M54 0v521h137v-521h-137zM122 583c-21.333 0 -39.666 7.66699 -54.999 23s-23 33.666 -23 54.999c0 22 7.66699 40.5 23 55.5s33.666 22.5 54.999 22.5c22 0 40.5 -7.5 55.5 -22.5s22.5 -33.5 22.5 -55.5c0 -21.333 -7.5 -39.666 -22.5 -54.999s-33.5 -23 -55.5 -23z
M363 583c-21.333 0 -39.666 7.66699 -54.999 23s-23 33.666 -23 54.999c0 22 7.66699 40.5 23 55.5s33.666 22.5 54.999 22.5c22 0 40.5 -7.5 55.5 -22.5s22.5 -33.5 22.5 -55.5c0 -21.333 -7.5 -39.666 -22.5 -54.999s-33.5 -23 -55.5 -23zM263 -214
c-12.667 0 -25.667 0.832031 -39 2.49902s-24 3.83398 -32 6.50098v105c12 -2.66699 26.667 -4 44 -4c20 0 34.833 4.16699 44.5 12.5s14.5 21.833 14.5 40.5v572h137v-580c0 -49.333 -14.667 -87.5 -44 -114.5s-71 -40.5 -125 -40.5z" />
    <glyph glyph-name="Jcircumflex" unicode="&#x134;" horiz-adv-x="641" 
d="M300 -10c-70 0 -129.332 17.666 -177.999 52.999s-83.667 86 -105 152l134 51c14.667 -42.667 34.167 -74 58.5 -94s54.5 -30 90.5 -30c43.333 0 78.166 14 104.499 42s39.5 65.333 39.5 112v424h145v-428c0 -56.667 -12 -106.167 -36 -148.5
s-57.667 -75.166 -101 -98.499s-94 -35 -152 -35zM591.001 783.999l-74 74l-73 -74h-110l115 136h140l115 -136h-113z" />
    <glyph glyph-name="jcircumflex" unicode="&#x135;" horiz-adv-x="244" 
d="M23 -214c-12.667 0 -25.668 0.832031 -39.001 2.49902s-24.333 3.83398 -33 6.50098v105c12.667 -2.66699 27.667 -4 45 -4c20 0 34.667 4.16699 44 12.5s14 21.833 14 40.5v572h137v-581c0 -48.667 -14.667 -86.5 -44 -113.5s-70.666 -40.5 -123.999 -40.5z
M193.999 604.999l-74 74l-73 -74h-110l115 136h140l115 -136h-113z" />
    <glyph glyph-name="Kcommaaccent" unicode="&#x136;" horiz-adv-x="697" 
d="M63 0v700h145v-313l306 313h177l-340 -333l356 -367h-194l-305 325v-325h-145zM243 -286l51 205h129l-81 -205h-99z" />
    <glyph glyph-name="kcommaaccent" unicode="&#x137;" horiz-adv-x="568" 
d="M54 0v700l137 23v-421l225 219h155l-246 -239l261 -282h-175l-220 238v-238h-137zM172 -286l51 205h129l-81 -205h-99z" />
    <glyph glyph-name="kgreenlandic" unicode="&#x138;" horiz-adv-x="568" 
d="M54 0v521h137v-219l225 219h155l-246 -239l261 -282h-175l-220 238v-238h-137z" />
    <glyph glyph-name="Lacute" unicode="&#x139;" horiz-adv-x="628" 
d="M63 0v700h145v-572h383v-128h-528zM54 787l90 130h156l-135 -130h-111z" />
    <glyph glyph-name="lacute" unicode="&#x13a;" horiz-adv-x="244" 
d="M54 0v700l137 23v-723h-137zM41 787l90 130h156l-135 -130h-111z" />
    <glyph glyph-name="Lcommaaccent" unicode="&#x13b;" horiz-adv-x="628" 
d="M63 0v700h145v-572h383v-128h-528zM234 -286l51 205h129l-81 -205h-99z" />
    <glyph glyph-name="lcommaaccent" unicode="&#x13c;" horiz-adv-x="244" 
d="M54 0v700l137 23v-723h-137zM7 -286l51 205h129l-81 -205h-99z" />
    <glyph glyph-name="Lcaron" unicode="&#x13d;" horiz-adv-x="623" 
d="M63 0v700h145v-572h383v-128h-528zM401 501l4 199l111 21l-36 -220h-79z" />
    <glyph glyph-name="lcaron" unicode="&#x13e;" horiz-adv-x="375" 
d="M54 0v700l137 23v-723h-137zM263 501l4 199l111 21l-36 -220h-79z" />
    <glyph glyph-name="Ldot" unicode="&#x13f;" horiz-adv-x="623" 
d="M63 0v700h145v-572h383v-128h-528zM435 296c-21.333 0 -39.166 7 -53.499 21s-21.5 31.333 -21.5 52c0 20 7.16699 37 21.5 51s32.166 21 53.499 21s39.166 -7 53.499 -21s21.5 -31 21.5 -51c0 -20.667 -7.16699 -38 -21.5 -52s-32.166 -21 -53.499 -21z" />
    <glyph glyph-name="ldot" unicode="&#x140;" horiz-adv-x="397" 
d="M54 0v700l137 23v-723h-137zM322 285c-21.333 0 -39.166 7 -53.499 21s-21.5 31.333 -21.5 52c0 20 7.16699 37 21.5 51s32.166 21 53.499 21s39.166 -7 53.499 -21s21.5 -31 21.5 -51c0 -20.667 -7.16699 -38 -21.5 -52s-32.166 -21 -53.499 -21z" />
    <glyph glyph-name="Lslash" unicode="&#x141;" horiz-adv-x="648" 
d="M89 0v209l-78 -50v122l78 51v368h145v-279l177 114v-123l-177 -114v-170h382v-128h-527z" />
    <glyph glyph-name="lslash" unicode="&#x142;" horiz-adv-x="289" 
d="M78 0v259l-70 -50v125l70 50v316l137 30v-250l70 50v-125l-70 -50v-355h-137z" />
    <glyph glyph-name="Nacute" unicode="&#x143;" horiz-adv-x="749" 
d="M63 0v700h138l348 -452v452h136v-700h-128l-357 468v-468h-137zM293 787l90 130h156l-135 -130h-111z" />
    <glyph glyph-name="nacute" unicode="&#x144;" horiz-adv-x="593" 
d="M54 0l-0.000976562 521h137v-43c39.333 35.333 88 53 146 53c40.667 0 76.5 -8.83301 107.5 -26.5s55.167 -42 72.5 -73s26 -67.167 26 -108.5v-323h-137v303c0 34 -9.66699 60.833 -29 80.5s-45.666 29.5 -78.999 29.5c-23.333 0 -44 -4.5 -62 -13.5
s-33 -21.833 -45 -38.5v-361h-137zM217.999 608l90 130h156l-135 -130h-111z" />
    <glyph glyph-name="Ncommaaccent" unicode="&#x145;" horiz-adv-x="749" 
d="M63 0v700h138l348 -452v452h136v-700h-128l-357 468v-468h-137zM259 -286l51 205h129l-81 -205h-99z" />
    <glyph glyph-name="ncommaaccent" unicode="&#x146;" horiz-adv-x="593" 
d="M54 0l-0.000976562 521h137v-43c39.333 35.333 88 53 146 53c40.667 0 76.5 -8.83301 107.5 -26.5s55.167 -42 72.5 -73s26 -67.167 26 -108.5v-323h-137v303c0 34 -9.66699 60.833 -29 80.5s-45.666 29.5 -78.999 29.5c-23.333 0 -44 -4.5 -62 -13.5
s-33 -21.833 -45 -38.5v-361h-137zM183.999 -286l51 205h129l-81 -205h-99z" />
    <glyph glyph-name="Ncaron" unicode="&#x147;" horiz-adv-x="749" 
d="M63 0v700h138l348 -452v452h136v-700h-128l-357 468v-468h-137zM302 920l73 -73l74 73h110l-115 -135h-140l-115 135h113z" />
    <glyph glyph-name="ncaron" unicode="&#x148;" horiz-adv-x="593" 
d="M54 0l-0.000976562 521h137v-43c39.333 35.333 88 53 146 53c40.667 0 76.5 -8.83301 107.5 -26.5s55.167 -42 72.5 -73s26 -67.167 26 -108.5v-323h-137v303c0 34 -9.66699 60.833 -29 80.5s-45.666 29.5 -78.999 29.5c-23.333 0 -44 -4.5 -62 -13.5
s-33 -21.833 -45 -38.5v-361h-137zM226.999 741l73 -73l74 73h110l-115 -135h-140l-115 135h113z" />
    <glyph glyph-name="Eng" unicode="&#x14a;" horiz-adv-x="749" 
d="M517 -212c-12 0 -25 0.831055 -39 2.49805s-25 3.83398 -33 6.50098v104c13.333 -2.66699 28.333 -4 45 -4c20.667 0 35.667 4.33301 45 13s14 22.334 14 41.001v53l-349 458v-462h-137v700h133l353 -459v459h136v-758c0 -49.333 -14.5 -87.333 -43.5 -114
s-70.5 -40 -124.5 -40z" />
    <glyph glyph-name="eng" unicode="&#x14b;" horiz-adv-x="593" 
d="M375 -215c-12 0 -24.833 0.832031 -38.5 2.49902s-24.834 3.83398 -33.501 6.50098v105c13.333 -2.66699 28.333 -4 45 -4c20.667 0 35.5 4.16699 44.5 12.5s13.5 21.833 13.5 40.5v355c0 34 -9.66699 60.833 -29 80.5s-45.666 29.5 -78.999 29.5
c-23.333 0 -44 -4.5 -62 -13.5s-33 -21.833 -45 -38.5v-361h-137v521h137v-43c39.333 35.333 88 53 146 53c40.667 0 76.5 -8.83301 107.5 -26.5s55.167 -42 72.5 -73s26 -67.167 26 -108.5v-384c0 -48.667 -14.5 -86.5 -43.5 -113.5s-70.5 -40.5 -124.5 -40.5z" />
    <glyph glyph-name="Omacron" unicode="&#x14c;" horiz-adv-x="813" 
d="M406 -11c-52 0 -100.333 9.16699 -145 27.5s-83.834 44 -117.501 77s-60 71.333 -79 115s-28.5 90.834 -28.5 141.501s9.5 97.834 28.5 141.501s45.333 82 79 115s72.834 58.667 117.501 77s93 27.5 145 27.5s100.5 -9.16699 145.5 -27.5s84.333 -44 118 -77
s59.834 -71.333 78.501 -115s28 -90.834 28 -141.501s-9.33301 -97.834 -28 -141.501s-44.834 -82 -78.501 -115s-73 -58.667 -118 -77s-93.5 -27.5 -145.5 -27.5zM406 122c32 0 61.333 5.83203 88 17.499s50 27.667 70 48s35.667 44.5 47 72.5s17 58 17 90
c0 32.667 -5.66699 62.834 -17 90.501s-27 51.667 -47 72s-43.333 36.333 -70 48s-56 17.5 -88 17.5c-31.333 0 -60.333 -5.83301 -87 -17.5s-50 -27.667 -70 -48s-35.667 -44.333 -47 -72s-17 -57.5 -17 -89.5c0 -32.667 5.66699 -63 17 -91s27 -52.167 47 -72.5
s43.333 -36.333 70 -48s55.667 -17.5 87 -17.5zM246 803.999v86h320v-86h-320z" />
    <glyph glyph-name="omacron" unicode="&#x14d;" horiz-adv-x="616" 
d="M308 -10c-52 0 -98.998 12 -140.998 36s-75.333 56.333 -100 97s-37 86.334 -37 137.001s12.167 96.5 36.5 137.5s57.666 73.5 99.999 97.5s89.5 36 141.5 36s99.167 -12 141.5 -36s75.666 -56.5 99.999 -97.5s36.5 -86.833 36.5 -137.5s-12.167 -96.334 -36.5 -137.001
s-57.5 -73 -99.5 -97s-89.333 -36 -142 -36zM308.002 109c27.333 0 51.833 6.66699 73.5 20s39 31.5 52 54.5s19.5 48.5 19.5 76.5c0 28.667 -6.5 54.334 -19.5 77.001s-30.333 40.834 -52 54.501s-46.167 20.5 -73.5 20.5c-26.667 0 -51 -6.83301 -73 -20.5
s-39.333 -31.834 -52 -54.501s-19 -48.334 -19 -77.001c0 -28 6.33301 -53.5 19 -76.5s30 -41.167 52 -54.5s46.333 -20 73 -20zM148.002 625v86h320v-86h-320z" />
    <glyph glyph-name="Obreve" unicode="&#x14e;" horiz-adv-x="813" 
d="M406 -11c-52 0 -100.333 9.16699 -145 27.5s-83.834 44 -117.501 77s-60 71.333 -79 115s-28.5 90.834 -28.5 141.501s9.5 97.834 28.5 141.501s45.333 82 79 115s72.834 58.667 117.501 77s93 27.5 145 27.5s100.5 -9.16699 145.5 -27.5s84.333 -44 118 -77
s59.834 -71.333 78.501 -115s28 -90.834 28 -141.501s-9.33301 -97.834 -28 -141.501s-44.834 -82 -78.501 -115s-73 -58.667 -118 -77s-93.5 -27.5 -145.5 -27.5zM406 122c32 0 61.333 5.83203 88 17.499s50 27.667 70 48s35.667 44.5 47 72.5s17 58 17 90
c0 32.667 -5.66699 62.834 -17 90.501s-27 51.667 -47 72s-43.333 36.333 -70 48s-56 17.5 -88 17.5c-31.333 0 -60.333 -5.83301 -87 -17.5s-50 -27.667 -70 -48s-35.667 -44.333 -47 -72s-17 -57.5 -17 -89.5c0 -32.667 5.66699 -63 17 -91s27 -52.167 47 -72.5
s43.333 -36.333 70 -48s55.667 -17.5 87 -17.5zM406 778.999c-45.333 0 -83.332 11.833 -113.999 35.5s-51 56.834 -61 99.501l84 22c16 -53.333 46.333 -80 91 -80c22.667 0 41.667 6.66699 57 20s26.666 33.333 33.999 60l84 -22c-10 -42.667 -30.333 -75.834 -61 -99.501
s-68.667 -35.5 -114 -35.5z" />
    <glyph glyph-name="obreve" unicode="&#x14f;" horiz-adv-x="616" 
d="M308 -10c-52 0 -98.998 12 -140.998 36s-75.333 56.333 -100 97s-37 86.334 -37 137.001s12.167 96.5 36.5 137.5s57.666 73.5 99.999 97.5s89.5 36 141.5 36s99.167 -12 141.5 -36s75.666 -56.5 99.999 -97.5s36.5 -86.833 36.5 -137.5s-12.167 -96.334 -36.5 -137.001
s-57.5 -73 -99.5 -97s-89.333 -36 -142 -36zM308.002 109c27.333 0 51.833 6.66699 73.5 20s39 31.5 52 54.5s19.5 48.5 19.5 76.5c0 28.667 -6.5 54.334 -19.5 77.001s-30.333 40.834 -52 54.501s-46.167 20.5 -73.5 20.5c-26.667 0 -51 -6.83301 -73 -20.5
s-39.333 -31.834 -52 -54.501s-19 -48.334 -19 -77.001c0 -28 6.33301 -53.5 19 -76.5s30 -41.167 52 -54.5s46.333 -20 73 -20zM308.002 600c-45.333 0 -83.332 11.833 -113.999 35.5s-51 56.834 -61 99.501l84 22c16 -53.333 46.333 -80 91 -80
c22.667 0 41.667 6.66699 57 20s26.666 33.333 33.999 60l84 -22c-10 -42.667 -30.333 -75.834 -61 -99.501s-68.667 -35.5 -114 -35.5z" />
    <glyph glyph-name="Ohungarumlaut" unicode="&#x150;" horiz-adv-x="813" 
d="M406 -11c-52 0 -100.333 9.16699 -145 27.5s-83.834 44 -117.501 77s-60 71.333 -79 115s-28.5 90.834 -28.5 141.501s9.5 97.834 28.5 141.501s45.333 82 79 115s72.834 58.667 117.501 77s93 27.5 145 27.5s100.5 -9.16699 145.5 -27.5s84.333 -44 118 -77
s59.834 -71.333 78.501 -115s28 -90.834 28 -141.501s-9.33301 -97.834 -28 -141.501s-44.834 -82 -78.501 -115s-73 -58.667 -118 -77s-93.5 -27.5 -145.5 -27.5zM406 122c32 0 61.333 5.83203 88 17.499s50 27.667 70 48s35.667 44.5 47 72.5s17 58 17 90
c0 32.667 -5.66699 62.834 -17 90.501s-27 51.667 -47 72s-43.333 36.333 -70 48s-56 17.5 -88 17.5c-31.333 0 -60.333 -5.83301 -87 -17.5s-50 -27.667 -70 -48s-35.667 -44.333 -47 -72s-17 -57.5 -17 -89.5c0 -32.667 5.66699 -63 17 -91s27 -52.167 47 -72.5
s43.333 -36.333 70 -48s55.667 -17.5 87 -17.5zM238 788.999l101 127h136l-132 -127h-105zM445 788.999l101 127h138l-142 -127h-97z" />
    <glyph glyph-name="ohungarumlaut" unicode="&#x151;" horiz-adv-x="616" 
d="M308 -10c-52 0 -98.998 12 -140.998 36s-75.333 56.333 -100 97s-37 86.334 -37 137.001s12.167 96.5 36.5 137.5s57.666 73.5 99.999 97.5s89.5 36 141.5 36s99.167 -12 141.5 -36s75.666 -56.5 99.999 -97.5s36.5 -86.833 36.5 -137.5s-12.167 -96.334 -36.5 -137.001
s-57.5 -73 -99.5 -97s-89.333 -36 -142 -36zM308.002 109c27.333 0 51.833 6.66699 73.5 20s39 31.5 52 54.5s19.5 48.5 19.5 76.5c0 28.667 -6.5 54.334 -19.5 77.001s-30.333 40.834 -52 54.501s-46.167 20.5 -73.5 20.5c-26.667 0 -51 -6.83301 -73 -20.5
s-39.333 -31.834 -52 -54.501s-19 -48.334 -19 -77.001c0 -28 6.33301 -53.5 19 -76.5s30 -41.167 52 -54.5s46.333 -20 73 -20zM140.002 610l101 127h136l-132 -127h-105zM347.002 610l101 127h138l-142 -127h-97z" />
    <glyph glyph-name="OE" unicode="&#x152;" horiz-adv-x="1100" 
d="M400 0c-50 0 -96.8301 8.99902 -140.497 26.999s-82 43 -115 75s-58.667 69.167 -77 111.5s-27.5 87.833 -27.5 136.5s9.16699 94.167 27.5 136.5s44 79.5 77 111.5s71.333 57 115 75s90.5 27 140.5 27h659v-126h-390c21.333 -20.667 39.166 -44.667 53.499 -72
s24.166 -56.666 29.499 -87.999h183v-122h-182c-4.66699 -32 -14.334 -62.167 -29.001 -90.5s-32.667 -53.5 -54 -75.5h389v-126h-659zM400.003 128.999c29.333 0 56.666 5.66699 81.999 17s47.666 26.833 66.999 46.5s34.5 43 45.5 70s16.5 56.167 16.5 87.5
s-5.5 60.5 -16.5 87.5s-26.167 50.333 -45.5 70s-41.666 35.167 -66.999 46.5s-52.666 17 -81.999 17c-30 0 -57.667 -5.66699 -83 -17s-47.666 -26.833 -66.999 -46.5s-34.333 -43 -45 -70s-16 -56.167 -16 -87.5s5.33301 -60.5 16 -87.5s25.667 -50.333 45 -70
s41.666 -35.167 66.999 -46.5s53 -17 83 -17z" />
    <glyph glyph-name="oe" unicode="&#x153;" horiz-adv-x="1010" 
d="M308 -10c-52 0 -99 12.001 -141 36.001s-75.333 56.333 -100 97s-37 86.334 -37 137.001s12.333 96.5 37 137.5s58 73.5 100 97.5s89 36 141 36c43.333 0 83 -9 119 -27s66 -42.333 90 -73c23.333 30 52.666 54 87.999 72s74.333 27 117 27
c49.333 0 93.5 -12.333 132.5 -37s69.667 -58 92 -100s33.5 -89.667 33.5 -143v-36h-387c6.66699 -20.667 16.834 -39.334 30.501 -56.001s30.667 -29.667 51 -39s42.166 -14 65.499 -14s44.833 3.66699 64.5 11s36.5 17.666 50.5 30.999l90 -82
c-32 -26 -64.833 -45 -98.5 -57s-71.5 -18 -113.5 -18c-44 0 -84.667 9.16699 -122 27.5s-68.333 42.833 -93 73.5c-24 -30.667 -54.167 -55.167 -90.5 -73.5s-76.166 -27.5 -119.499 -27.5zM308 109.001c27.333 0 51.832 6.66699 73.499 20s38.834 31.5 51.501 54.5
s19 48.5 19 76.5c0 28.667 -6.33301 54.5 -19 77.5s-30 41.167 -52 54.5s-46.333 20 -73 20s-51 -6.66699 -73 -20s-39.333 -31.5 -52 -54.5s-19 -48.833 -19 -77.5c0 -28 6.33301 -53.5 19 -76.5s30 -41.167 52 -54.5s46.333 -20 73 -20zM591.999 312.001h252.998
c-4.66699 20.667 -13.167 38.834 -25.5 54.501s-27.166 28 -44.499 37s-36 13.5 -56 13.5c-21.333 0 -40.666 -4.33301 -57.999 -13s-31.833 -20.834 -43.5 -36.501s-20.167 -34.167 -25.5 -55.5z" />
    <glyph glyph-name="Racute" unicode="&#x154;" horiz-adv-x="679" 
d="M63 0l0.00195312 700.001h342c47.333 0 89.166 -9.16699 125.499 -27.5s64.666 -43.833 84.999 -76.5s30.5 -70.334 30.5 -113.001c0 -44.667 -12.333 -84 -37 -118s-57.667 -59.333 -99 -76l155 -289h-162l-137 268h-158v-268h-145zM208.002 387.001h184
c32.667 0 58.834 8.66699 78.501 26s29.5 40 29.5 68s-9.83301 50.667 -29.5 68s-45.834 26 -78.501 26h-184v-188zM257.002 787.001l90 130h156l-135 -130h-111z" />
    <glyph glyph-name="racute" unicode="&#x155;" horiz-adv-x="408" 
d="M54 0l0.000976562 521h137v-58c16.667 22.667 36.667 40 60 52s49.666 18 78.999 18c25.333 -0.666992 44.333 -4.66699 57 -12v-120c-10 4.66699 -21 8.16699 -33 10.5s-24.333 3.5 -37 3.5c-26.667 0 -51 -6.66699 -73 -20s-39.667 -32.333 -53 -57v-338h-137z
M150.001 608l90 130h156l-135 -130h-111z" />
    <glyph glyph-name="Rcommaaccent" unicode="&#x156;" horiz-adv-x="679" 
d="M63 0l0.00195312 700.001h342c47.333 0 89.166 -9.16699 125.499 -27.5s64.666 -43.833 84.999 -76.5s30.5 -70.334 30.5 -113.001c0 -44.667 -12.333 -84 -37 -118s-57.667 -59.333 -99 -76l155 -289h-162l-137 268h-158v-268h-145zM208.002 387.001h184
c32.667 0 58.834 8.66699 78.501 26s29.5 40 29.5 68s-9.83301 50.667 -29.5 68s-45.834 26 -78.501 26h-184v-188zM232.002 -285.999l51 205h129l-81 -205h-99z" />
    <glyph glyph-name="rcommaaccent" unicode="&#x157;" horiz-adv-x="408" 
d="M54 0l0.000976562 521h137v-58c16.667 22.667 36.667 40 60 52s49.666 18 78.999 18c25.333 -0.666992 44.333 -4.66699 57 -12v-120c-10 4.66699 -21 8.16699 -33 10.5s-24.333 3.5 -37 3.5c-26.667 0 -51 -6.66699 -73 -20s-39.667 -32.333 -53 -57v-338h-137z
M3.00098 -286l51 205h129l-81 -205h-99z" />
    <glyph glyph-name="Rcaron" unicode="&#x158;" horiz-adv-x="679" 
d="M63 0l0.00195312 700.001h342c47.333 0 89.166 -9.16699 125.499 -27.5s64.666 -43.833 84.999 -76.5s30.5 -70.334 30.5 -113.001c0 -44.667 -12.333 -84 -37 -118s-57.667 -59.333 -99 -76l155 -289h-162l-137 268h-158v-268h-145zM208.002 387.001h184
c32.667 0 58.834 8.66699 78.501 26s29.5 40 29.5 68s-9.83301 50.667 -29.5 68s-45.834 26 -78.501 26h-184v-188zM266.002 920.001l73 -73l74 73h110l-115 -135h-140l-115 135h113z" />
    <glyph glyph-name="rcaron" unicode="&#x159;" horiz-adv-x="408" 
d="M54 0l0.000976562 521h137v-58c16.667 22.667 36.667 40 60 52s49.666 18 78.999 18c25.333 -0.666992 44.333 -4.66699 57 -12v-120c-10 4.66699 -21 8.16699 -33 10.5s-24.333 3.5 -37 3.5c-26.667 0 -51 -6.66699 -73 -20s-39.667 -32.333 -53 -57v-338h-137z
M159.001 741l73 -73l74 73h110l-115 -135h-140l-115 135h113z" />
    <glyph glyph-name="Sacute" unicode="&#x15a;" horiz-adv-x="631" 
d="M313 -10c-56.667 0 -112.001 10.501 -166.001 31.501s-102 50.833 -144 89.5l83 104c40.667 -36 79.834 -62 117.501 -78s77.5 -24 119.5 -24c29.333 0 54.666 3.5 75.999 10.5s37.833 17.167 49.5 30.5s17.5 29 17.5 47c0 24 -8.66699 42.5 -26 55.5
s-47 23.167 -89 30.5l-139 24c-59.333 10 -104.5 31 -135.5 63s-46.5 73.333 -46.5 124c0 43.333 11.167 81 33.5 113s54 56.5 95 73.5s89.833 25.5 146.5 25.5c51.333 0 102.5 -8.66699 153.5 -26s96.167 -41.333 135.5 -72l-78 -108c-73.333 56 -147 84 -221 84
c-26 0 -48.667 -3.33301 -68 -10s-34.166 -15.834 -44.499 -27.501s-15.5 -25.5 -15.5 -41.5c0 -21.333 7.66699 -37.833 23 -49.5s41 -20.5 77 -26.5l132 -22c70 -11.333 122.333 -33.5 157 -66.5s52 -76.5 52 -130.5c0 -45.333 -12 -84.833 -36 -118.5
s-58.167 -59.667 -102.5 -78s-96.5 -27.5 -156.5 -27.5zM218.999 788.001l90 130h156l-135 -130h-111z" />
    <glyph glyph-name="sacute" unicode="&#x15b;" horiz-adv-x="491" 
d="M249 -10c-48 0 -92.333 6.16797 -133 18.501s-76 30.166 -106 53.499l68 91c30 -20 58.833 -35 86.5 -45s55.167 -15 82.5 -15c30.667 0 55.167 5.16699 73.5 15.5s27.5 23.833 27.5 40.5c0 13.333 -5.16699 24 -15.5 32s-26.833 13.667 -49.5 17l-100 15
c-52 8 -91.333 24.833 -118 50.5s-40 59.5 -40 101.5c0 34 8.83301 63.167 26.5 87.5s42.667 43.333 75 57s70.833 20.5 115.5 20.5c38 0 75.167 -5.33301 111.5 -16s70.5 -27 102.5 -49l-66 -89c-28.667 18 -56 31 -82 39s-52.333 12 -79 12
c-24.667 0 -44.5 -4.66699 -59.5 -14s-22.5 -21.666 -22.5 -36.999c0 -14 5.33301 -25 16 -33s29 -13.667 55 -17l99 -15c52 -7.33301 91.667 -23.833 119 -49.5s41 -58.834 41 -99.501c0 -33.333 -10 -62.833 -30 -88.5s-47 -46 -81 -61s-73 -22.5 -117 -22.5zM160 608.001
l90 130h156l-135 -130h-111z" />
    <glyph glyph-name="Scircumflex" unicode="&#x15c;" horiz-adv-x="631" 
d="M313 -10c-56.667 0 -112.001 10.501 -166.001 31.501s-102 50.833 -144 89.5l83 104c40.667 -36 79.834 -62 117.501 -78s77.5 -24 119.5 -24c29.333 0 54.666 3.5 75.999 10.5s37.833 17.167 49.5 30.5s17.5 29 17.5 47c0 24 -8.66699 42.5 -26 55.5
s-47 23.167 -89 30.5l-139 24c-59.333 10 -104.5 31 -135.5 63s-46.5 73.333 -46.5 124c0 43.333 11.167 81 33.5 113s54 56.5 95 73.5s89.833 25.5 146.5 25.5c51.333 0 102.5 -8.66699 153.5 -26s96.167 -41.333 135.5 -72l-78 -108c-73.333 56 -147 84 -221 84
c-26 0 -48.667 -3.33301 -68 -10s-34.166 -15.834 -44.499 -27.501s-15.5 -25.5 -15.5 -41.5c0 -21.333 7.66699 -37.833 23 -49.5s41 -20.5 77 -26.5l132 -22c70 -11.333 122.333 -33.5 157 -66.5s52 -76.5 52 -130.5c0 -45.333 -12 -84.833 -36 -118.5
s-58.167 -59.667 -102.5 -78s-96.5 -27.5 -156.5 -27.5zM371.999 785.001l-74 74l-73 -74h-110l115 136h140l115 -136h-113z" />
    <glyph glyph-name="scircumflex" unicode="&#x15d;" horiz-adv-x="491" 
d="M249 -10c-48 0 -92.333 6.16797 -133 18.501s-76 30.166 -106 53.499l68 91c30 -20 58.833 -35 86.5 -45s55.167 -15 82.5 -15c30.667 0 55.167 5.16699 73.5 15.5s27.5 23.833 27.5 40.5c0 13.333 -5.16699 24 -15.5 32s-26.833 13.667 -49.5 17l-100 15
c-52 8 -91.333 24.833 -118 50.5s-40 59.5 -40 101.5c0 34 8.83301 63.167 26.5 87.5s42.667 43.333 75 57s70.833 20.5 115.5 20.5c38 0 75.167 -5.33301 111.5 -16s70.5 -27 102.5 -49l-66 -89c-28.667 18 -56 31 -82 39s-52.333 12 -79 12
c-24.667 0 -44.5 -4.66699 -59.5 -14s-22.5 -21.666 -22.5 -36.999c0 -14 5.33301 -25 16 -33s29 -13.667 55 -17l99 -15c52 -7.33301 91.667 -23.833 119 -49.5s41 -58.834 41 -99.501c0 -33.333 -10 -62.833 -30 -88.5s-47 -46 -81 -61s-73 -22.5 -117 -22.5zM313 605.001
l-74 74l-73 -74h-110l115 136h140l115 -136h-113z" />
    <glyph glyph-name="Scedilla" unicode="&#x15e;" horiz-adv-x="631" 
d="M290 -235c-50 0 -91.667 15.001 -125 45.001l45 48c24.667 -19.333 50.667 -29 78 -29c17.333 0 30.666 3.33301 39.999 10s14 16 14 28c0 11.333 -4.83301 20.333 -14.5 27s-22.834 10 -39.501 10h-42l26 88c-50 4.66699 -98.167 17.167 -144.5 37.5
s-87.833 47.5 -124.5 81.5l83 104c40.667 -36 79.834 -62 117.501 -78s77.5 -24 119.5 -24c29.333 0 54.666 3.5 75.999 10.5s37.833 17.167 49.5 30.5s17.5 29 17.5 47c0 24 -8.66699 42.5 -26 55.5s-47 23.167 -89 30.5l-139 24c-59.333 10 -104.5 31 -135.5 63
s-46.5 73.333 -46.5 124c0 43.333 11.167 81 33.5 113s54 56.5 95 73.5s89.833 25.5 146.5 25.5c51.333 0 102.5 -8.66699 153.5 -26s96.167 -41.333 135.5 -72l-78 -108c-73.333 56 -147 84 -221 84c-26 0 -48.667 -3.33301 -68 -10s-34.166 -15.834 -44.499 -27.501
s-15.5 -25.5 -15.5 -41.5c0 -21.333 7.66699 -37.833 23 -49.5s41 -20.5 77 -26.5l132 -22c70 -11.333 122.333 -33.5 157 -66.5s52 -76.5 52 -130.5c0 -43.333 -11 -81.333 -33 -114s-53.333 -58.5 -94 -77.5s-88.667 -29.5 -144 -31.5l-10 -36
c29.333 -2.66699 52.5 -12 69.5 -28s25.5 -36.333 25.5 -61c0 -28.667 -12.667 -52.667 -38 -72s-56.666 -29 -93.999 -29z" />
    <glyph glyph-name="scedilla" unicode="&#x15f;" horiz-adv-x="491" 
d="M230 -236c-49.333 0 -91 14.998 -125 44.998l45 48c24.667 -19.333 50.667 -29 78 -29c18 0 31.667 3.5 41 10.5s14 16.167 14 27.5s-4.83301 20.333 -14.5 27s-23.167 10 -40.5 10h-42l26 88c-40 3.33301 -77.167 10.833 -111.5 22.5s-64.5 27.834 -90.5 48.501l68 91
c30 -20 58.833 -34.833 86.5 -44.5s55.167 -14.5 82.5 -14.5c30.667 0 55.167 5 73.5 15s27.5 23.333 27.5 40c0 13.333 -5.16699 24 -15.5 32s-26.833 13.667 -49.5 17l-100 15c-52 8 -91.333 24.833 -118 50.5s-40 59.167 -40 100.5c0 34 8.83301 63.333 26.5 88
s42.667 43.667 75 57s70.833 20 115.5 20c38 0 75.167 -5.33301 111.5 -16s70.5 -27 102.5 -49l-66 -88c-28.667 17.333 -56 30 -82 38s-52.333 12 -79 12c-24.667 0 -44.5 -4.66699 -59.5 -14s-22.5 -21.666 -22.5 -36.999c0 -13.333 5.33301 -24 16 -32s29 -13.667 55 -17
l99 -15c52 -7.33301 91.667 -23.833 119 -49.5s41 -58.834 41 -99.501c0 -30 -8.5 -57.333 -25.5 -82s-40.5 -44.667 -70.5 -60s-64.333 -24.666 -103 -27.999l-11 -38c29.333 -2 52.5 -11 69.5 -27s25.5 -36.667 25.5 -62c0 -28.667 -12.5 -52.667 -37.5 -72
s-56.5 -29 -94.5 -29z" />
    <glyph glyph-name="Scaron" unicode="&#x160;" horiz-adv-x="631" 
d="M313 -10c-56.667 0 -112.001 10.501 -166.001 31.501s-102 50.833 -144 89.5l83 104c40.667 -36 79.834 -62 117.501 -78s77.5 -24 119.5 -24c29.333 0 54.666 3.5 75.999 10.5s37.833 17.167 49.5 30.5s17.5 29 17.5 47c0 24 -8.66699 42.5 -26 55.5
s-47 23.167 -89 30.5l-139 24c-59.333 10 -104.5 31 -135.5 63s-46.5 73.333 -46.5 124c0 43.333 11.167 81 33.5 113s54 56.5 95 73.5s89.833 25.5 146.5 25.5c51.333 0 102.5 -8.66699 153.5 -26s96.167 -41.333 135.5 -72l-78 -108c-73.333 56 -147 84 -221 84
c-26 0 -48.667 -3.33301 -68 -10s-34.166 -15.834 -44.499 -27.501s-15.5 -25.5 -15.5 -41.5c0 -21.333 7.66699 -37.833 23 -49.5s41 -20.5 77 -26.5l132 -22c70 -11.333 122.333 -33.5 157 -66.5s52 -76.5 52 -130.5c0 -45.333 -12 -84.833 -36 -118.5
s-58.167 -59.667 -102.5 -78s-96.5 -27.5 -156.5 -27.5zM227.999 921.001l73 -73l74 73h110l-115 -135h-140l-115 135h113z" />
    <glyph glyph-name="scaron" unicode="&#x161;" horiz-adv-x="491" 
d="M249 -10c-48 0 -92.333 6.16797 -133 18.501s-76 30.166 -106 53.499l68 91c30 -20 58.833 -35 86.5 -45s55.167 -15 82.5 -15c30.667 0 55.167 5.16699 73.5 15.5s27.5 23.833 27.5 40.5c0 13.333 -5.16699 24 -15.5 32s-26.833 13.667 -49.5 17l-100 15
c-52 8 -91.333 24.833 -118 50.5s-40 59.5 -40 101.5c0 34 8.83301 63.167 26.5 87.5s42.667 43.333 75 57s70.833 20.5 115.5 20.5c38 0 75.167 -5.33301 111.5 -16s70.5 -27 102.5 -49l-66 -89c-28.667 18 -56 31 -82 39s-52.333 12 -79 12
c-24.667 0 -44.5 -4.66699 -59.5 -14s-22.5 -21.666 -22.5 -36.999c0 -14 5.33301 -25 16 -33s29 -13.667 55 -17l99 -15c52 -7.33301 91.667 -23.833 119 -49.5s41 -58.834 41 -99.501c0 -33.333 -10 -62.833 -30 -88.5s-47 -46 -81 -61s-73 -22.5 -117 -22.5zM169 741.001
l73 -73l74 73h110l-115 -135h-140l-115 135h113z" />
    <glyph glyph-name="Tcedilla" unicode="&#x162;" horiz-adv-x="652" 
d="M306 -236c-49.333 0 -91 15 -125 45l45 48c25.333 -19.333 51.333 -29 78 -29c18 0 31.667 3.5 41 10.5s14 16.167 14 27.5s-4.83301 20.333 -14.5 27s-23.167 10 -40.5 10h-42l29 97h-37v572h-236v128h616v-128h-235v-572h-42l-13 -46c29.333 -2 52.5 -11 69.5 -27
s25.5 -36.667 25.5 -62c0 -28.667 -12.667 -52.667 -38 -72s-57 -29 -95 -29z" />
    <glyph glyph-name="tcedilla" unicode="&#x163;" horiz-adv-x="424" 
d="M248 -236c-50 0 -91.668 15 -125.001 45l45 48c24.667 -19.333 50.667 -29 78 -29c17.333 0 30.833 3.5 40.5 10.5s14.5 16.167 14.5 27.5s-4.83301 20.333 -14.5 27s-23.167 10 -40.5 10h-42l29 97c-72 18 -108 67 -108 147v260h-107v114h107v133l137 31v-164h149v-114
h-149v-232c0 -24 5.33301 -41.167 16 -51.5s29.334 -15.5 56.001 -15.5c13.333 0 25.5 1 36.5 3s23.167 5 36.5 9v-112c-14 -4.66699 -31.5 -8.5 -52.5 -11.5s-38.833 -4.5 -53.5 -4.5h-2h-2l-12 -38c29.333 -2 52.5 -11 69.5 -27s25.5 -36.667 25.5 -62
c0 -28.667 -12.5 -52.667 -37.5 -72s-56.5 -29 -94.5 -29z" />
    <glyph glyph-name="Tcaron" unicode="&#x164;" horiz-adv-x="652" 
d="M254 0v572h-236v128h616v-128h-235v-572h-145zM254 920l73 -73l74 73h110l-115 -135h-140l-115 135h113z" />
    <glyph glyph-name="tcaron" unicode="&#x165;" horiz-adv-x="424" 
d="M327 588l5 198l111 22l-35 -220h-81zM301 -8c-58 0 -101.834 13.167 -131.501 39.5s-44.5 64.833 -44.5 115.5v260h-107v114h107v133l137 31v-164h149v-114h-149v-232c0 -24 5.33301 -41.167 16 -51.5s29.334 -15.5 56.001 -15.5c13.333 0 25.5 1 36.5 3s23.167 5 36.5 9
v-112c-14 -4.66699 -31.5 -8.5 -52.5 -11.5s-38.833 -4.5 -53.5 -4.5z" />
    <glyph glyph-name="Tbar" unicode="&#x166;" horiz-adv-x="652" 
d="M254 0v280h-137v115h137v177h-236v128h616v-128h-235v-177h136v-115h-136v-280h-145z" />
    <glyph glyph-name="tbar" unicode="&#x167;" horiz-adv-x="424" 
d="M301 -8c-58 0 -101.834 13.167 -131.501 39.5s-44.5 64.833 -44.5 115.5v82h-107v99h107v79h-107v114h107v133l137 31v-164h149v-114h-149v-79h149v-99h-149v-54c0 -24 5.33301 -41.167 16 -51.5s29.334 -15.5 56.001 -15.5c13.333 0 25.5 0.833008 36.5 2.5
s23.167 4.83398 36.5 9.50098v-113c-14 -4.66699 -31.5 -8.33398 -52.5 -11.001s-38.833 -4 -53.5 -4z" />
    <glyph glyph-name="Utilde" unicode="&#x168;" horiz-adv-x="725" 
d="M362 -10c-63.333 0 -118.171 12.667 -164.504 38s-82.166 61.5 -107.499 108.5s-38 102.167 -38 165.5v398h145v-398c0 -36 6.83301 -67.5 20.5 -94.5s33 -47.667 58 -62s54.167 -21.5 87.5 -21.5s62.333 7.16699 87 21.5s43.834 35 57.501 62s20.5 58.5 20.5 94.5v398
h144v-398c0 -62.667 -12.667 -117.5 -38 -164.5s-61.166 -83.333 -107.499 -109s-101.166 -38.5 -164.499 -38.5zM252.995 776l-84.001 18c18 80.667 56 121 114 121c18.667 0 36.834 -4.16699 54.501 -12.5s34.5 -16.666 50.5 -24.999s30 -12.5 42 -12.5
c11.333 0 20.333 4 27 12s12.334 22 17.001 42l82 -18c-8 -41.333 -21.5 -72 -40.5 -92s-43.167 -30 -72.5 -30c-18 0 -35.833 4.16699 -53.5 12.5s-34.5 16.666 -50.5 24.999s-30.667 12.5 -44 12.5c-10.667 0 -19.334 -4 -26.001 -12s-12 -21.667 -16 -41z" />
    <glyph glyph-name="utilde" unicode="&#x169;" horiz-adv-x="593" 
d="M256 -10c-40 0 -75.5 8.83301 -106.5 26.5s-55.333 42.167 -73 73.5s-26.5 67.333 -26.5 108v323h137v-303c0 -33.333 9.83301 -60 29.5 -80s46.167 -30 79.5 -30c22.667 0 43.167 4.5 61.5 13.5s33.5 21.833 45.5 38.5v361h137v-521h-137v42
c-40 -34.667 -89 -52 -147 -52zM187 597l-84.001 18c18 80.667 56 121 114 121c18.667 0 36.834 -4.16699 54.501 -12.5s34.5 -16.666 50.5 -24.999s30 -12.5 42 -12.5c11.333 0 20.333 4 27 12s12.334 22 17.001 42l82 -18c-8 -41.333 -21.5 -72 -40.5 -92
s-43.167 -30 -72.5 -30c-18 0 -35.833 4.16699 -53.5 12.5s-34.5 16.666 -50.5 24.999s-30.667 12.5 -44 12.5c-10.667 0 -19.334 -4 -26.001 -12s-12 -21.667 -16 -41z" />
    <glyph glyph-name="Umacron" unicode="&#x16a;" horiz-adv-x="725" 
d="M362 -10c-63.333 0 -118.171 12.667 -164.504 38s-82.166 61.5 -107.499 108.5s-38 102.167 -38 165.5v398h145v-398c0 -36 6.83301 -67.5 20.5 -94.5s33 -47.667 58 -62s54.167 -21.5 87.5 -21.5s62.333 7.16699 87 21.5s43.834 35 57.501 62s20.5 58.5 20.5 94.5v398
h144v-398c0 -62.667 -12.667 -117.5 -38 -164.5s-61.166 -83.333 -107.499 -109s-101.166 -38.5 -164.499 -38.5zM202.995 804v86h320v-86h-320z" />
    <glyph glyph-name="umacron" unicode="&#x16b;" horiz-adv-x="593" 
d="M256 -10c-40 0 -75.5 8.83301 -106.5 26.5s-55.333 42.167 -73 73.5s-26.5 67.333 -26.5 108v323h137v-303c0 -33.333 9.83301 -60 29.5 -80s46.167 -30 79.5 -30c22.667 0 43.167 4.5 61.5 13.5s33.5 21.833 45.5 38.5v361h137v-521h-137v42
c-40 -34.667 -89 -52 -147 -52zM137 625v86h320v-86h-320z" />
    <glyph glyph-name="Ubreve" unicode="&#x16c;" horiz-adv-x="725" 
d="M362 -10c-63.333 0 -118.171 12.667 -164.504 38s-82.166 61.5 -107.499 108.5s-38 102.167 -38 165.5v398h145v-398c0 -36 6.83301 -67.5 20.5 -94.5s33 -47.667 58 -62s54.167 -21.5 87.5 -21.5s62.333 7.16699 87 21.5s43.834 35 57.501 62s20.5 58.5 20.5 94.5v398
h144v-398c0 -62.667 -12.667 -117.5 -38 -164.5s-61.166 -83.333 -107.499 -109s-101.166 -38.5 -164.499 -38.5zM362.995 779c-45.333 0 -83.332 11.833 -113.999 35.5s-51 56.834 -61 99.501l84 22c16 -53.333 46.333 -80 91 -80c22.667 0 41.667 6.66699 57 20
s26.666 33.333 33.999 60l84 -22c-10 -42.667 -30.333 -75.834 -61 -99.501s-68.667 -35.5 -114 -35.5z" />
    <glyph glyph-name="ubreve" unicode="&#x16d;" horiz-adv-x="593" 
d="M256 -10c-40 0 -75.5 8.83301 -106.5 26.5s-55.333 42.167 -73 73.5s-26.5 67.333 -26.5 108v323h137v-303c0 -33.333 9.83301 -60 29.5 -80s46.167 -30 79.5 -30c22.667 0 43.167 4.5 61.5 13.5s33.5 21.833 45.5 38.5v361h137v-521h-137v42
c-40 -34.667 -89 -52 -147 -52zM297 600c-45.333 0 -83.332 11.833 -113.999 35.5s-51 56.834 -61 99.501l84 22c16 -53.333 46.333 -80 91 -80c22.667 0 41.667 6.66699 57 20s26.666 33.333 33.999 60l84 -22c-10 -42.667 -30.333 -75.834 -61 -99.501
s-68.667 -35.5 -114 -35.5z" />
    <glyph glyph-name="Uring" unicode="&#x16e;" horiz-adv-x="725" 
d="M362 -10c-63.333 0 -118.171 12.667 -164.504 38s-82.166 61.5 -107.499 108.5s-38 102.167 -38 165.5v398h145v-398c0 -36 6.83301 -67.5 20.5 -94.5s33 -47.667 58 -62s54.167 -21.5 87.5 -21.5s62.333 7.16699 87 21.5s43.834 35 57.501 62s20.5 58.5 20.5 94.5v398
h144v-398c0 -62.667 -12.667 -117.5 -38 -164.5s-61.166 -83.333 -107.499 -109s-101.166 -38.5 -164.499 -38.5zM362.995 764c-22.667 0 -43.334 5.5 -62.001 16.5s-33.5 25.667 -44.5 44s-16.5 38.5 -16.5 60.5c0 21.333 5.5 41.166 16.5 59.499s25.833 33 44.5 44
s39.334 16.5 62.001 16.5s43.334 -5.5 62.001 -16.5s33.5 -25.667 44.5 -44s16.5 -38.166 16.5 -59.499c0 -22 -5.5 -42.167 -16.5 -60.5s-25.833 -33 -44.5 -44s-39.334 -16.5 -62.001 -16.5zM362.995 822c17.333 0 32.166 6 44.499 18s18.5 26.667 18.5 44
c0 18 -6.16699 33 -18.5 45s-27.166 18 -44.499 18s-32.166 -6 -44.499 -18s-18.5 -27 -18.5 -45c0 -17.333 6.16699 -32 18.5 -44s27.166 -18 44.499 -18z" />
    <glyph glyph-name="uring" unicode="&#x16f;" horiz-adv-x="593" 
d="M256 -10c-40 0 -75.5 8.83301 -106.5 26.5s-55.333 42.167 -73 73.5s-26.5 67.333 -26.5 108v323h137v-303c0 -33.333 9.83301 -60 29.5 -80s46.167 -30 79.5 -30c22.667 0 43.167 4.5 61.5 13.5s33.5 21.833 45.5 38.5v361h137v-521h-137v42
c-40 -34.667 -89 -52 -147 -52zM297 585c-22.667 0 -43.334 5.5 -62.001 16.5s-33.5 25.667 -44.5 44s-16.5 38.5 -16.5 60.5c0 21.333 5.5 41.166 16.5 59.499s25.833 33 44.5 44s39.334 16.5 62.001 16.5s43.334 -5.5 62.001 -16.5s33.5 -25.667 44.5 -44
s16.5 -38.166 16.5 -59.499c0 -22 -5.5 -42.167 -16.5 -60.5s-25.833 -33 -44.5 -44s-39.334 -16.5 -62.001 -16.5zM297 643c17.333 0 32.166 6 44.499 18s18.5 26.667 18.5 44c0 18 -6.16699 33 -18.5 45s-27.166 18 -44.499 18s-32.166 -6 -44.499 -18
s-18.5 -27 -18.5 -45c0 -17.333 6.16699 -32 18.5 -44s27.166 -18 44.499 -18z" />
    <glyph glyph-name="Uhungarumlaut" unicode="&#x170;" horiz-adv-x="725" 
d="M362 -10c-63.333 0 -118.171 12.667 -164.504 38s-82.166 61.5 -107.499 108.5s-38 102.167 -38 165.5v398h145v-398c0 -36 6.83301 -67.5 20.5 -94.5s33 -47.667 58 -62s54.167 -21.5 87.5 -21.5s62.333 7.16699 87 21.5s43.834 35 57.501 62s20.5 58.5 20.5 94.5v398
h144v-398c0 -62.667 -12.667 -117.5 -38 -164.5s-61.166 -83.333 -107.499 -109s-101.166 -38.5 -164.499 -38.5zM194.995 789l101 127h136l-132 -127h-105zM401.995 789l101 127h138l-142 -127h-97z" />
    <glyph glyph-name="uhungarumlaut" unicode="&#x171;" horiz-adv-x="593" 
d="M256 -10c-40 0 -75.5 8.83301 -106.5 26.5s-55.333 42.167 -73 73.5s-26.5 67.333 -26.5 108v323h137v-303c0 -33.333 9.83301 -60 29.5 -80s46.167 -30 79.5 -30c22.667 0 43.167 4.5 61.5 13.5s33.5 21.833 45.5 38.5v361h137v-521h-137v42
c-40 -34.667 -89 -52 -147 -52zM129 610l101 127h136l-132 -127h-105zM336 610l101 127h138l-142 -127h-97z" />
    <glyph glyph-name="Uogonek" unicode="&#x172;" horiz-adv-x="725" 
d="M382 -221c-32 0 -57.5039 8.5 -76.5039 25.5s-28.5 39.167 -28.5 66.5c0 22 6.16699 42.667 18.5 62s31.833 38.333 58.5 57c-61.333 1.33301 -114.666 15 -159.999 41s-80.333 62 -105 108s-37 100.333 -37 163v398h145v-398c0 -36 6.83301 -67.5 20.5 -94.5
s33 -47.667 58 -62s54.167 -21.5 87.5 -21.5s62.333 7.16699 87 21.5s43.834 35 57.501 62s20.5 58.5 20.5 94.5v398h144v-398c0 -80 -20.5 -146.833 -61.5 -200.5s-96.833 -88.167 -167.5 -103.5c-30 -18 -52 -35.333 -66 -52s-21 -33.667 -21 -51
c0 -14 4.5 -24.833 13.5 -32.5s21.167 -11.5 36.5 -11.5c7.33301 0 14.5 1 21.5 3s13.167 5 18.5 9l19 -62c-11.333 -6.66699 -24.166 -12 -38.499 -16s-29.166 -6 -44.499 -6z" />
    <glyph glyph-name="uogonek" unicode="&#x173;" horiz-adv-x="593" 
d="M477 -221c-32 0 -57.668 8.5 -77.001 25.5s-29 39.167 -29 66.5c0 24 7.33301 46.5 22 67.5s37.667 41.5 69 61.5h-59v42c-40 -34.667 -89 -52 -147 -52c-40 0 -75.5 8.83301 -106.5 26.5s-55.333 42.167 -73 73.5s-26.5 67.333 -26.5 108v323h137v-303
c0 -33.333 9.83301 -60 29.5 -80s45.834 -30 78.501 -30c23.333 0 44.166 4.5 62.499 13.5s33.5 21.833 45.5 38.5v361h137v-520c-31.333 -18.667 -54 -36.5 -68 -53.5s-21 -34.5 -21 -52.5c0 -14 4.5 -24.833 13.5 -32.5s21.167 -11.5 36.5 -11.5c6.66699 0 13.667 1 21 3
s13.666 5 18.999 9l19 -62c-11.333 -6.66699 -24.166 -12 -38.499 -16s-29.166 -6 -44.499 -6z" />
    <glyph glyph-name="Wcircumflex" unicode="&#x174;" horiz-adv-x="944" 
d="M181 0l-155 700h149l95 -474l136 474h137l136 -473l95 473h144l-154 -700h-153l-138 488l-140 -488h-152zM542 784l-74 74l-73 -74h-110l115 136h140l115 -136h-113z" />
    <glyph glyph-name="wcircumflex" unicode="&#x175;" horiz-adv-x="772" 
d="M153 0l-143 521h130l86 -336l104 336h115l103 -337l86 337h128l-144 -521h-131l-101 333l-101 -333h-132zM458 605l-74 74l-73 -74h-110l115 136h140l115 -136h-113z" />
    <glyph glyph-name="Ycircumflex" unicode="&#x176;" horiz-adv-x="706" 
d="M280 0v268l-286 432h167l196 -304l197 304h158l-287 -433v-267h-145zM425 784l-74 74l-73 -74h-110l115 136h140l115 -136h-113z" />
    <glyph glyph-name="ycircumflex" unicode="&#x177;" horiz-adv-x="577" 
d="M105 -215c-12 0 -23.5 0.499023 -34.5 1.49902s-20.167 2.16699 -27.5 3.5v118c13.333 -2.66699 29.333 -4 48 -4c50 0 84.667 23.667 104 71l8 20l-203 526h151l130 -355l147 355h148l-240 -563c-18 -42 -37.667 -75.667 -59 -101s-45.833 -43.666 -73.5 -54.999
s-60.5 -17 -98.5 -17zM358 604.999l-74 74l-73 -74h-110l115 136h140l115 -136h-113z" />
    <glyph glyph-name="Ydieresis" unicode="&#x178;" horiz-adv-x="706" 
d="M280 0v268l-286 432h167l196 -304l197 304h158l-287 -433v-267h-145zM241 784c-20 0 -37 6.66699 -51 20s-21 30.666 -21 51.999c0 20.667 7 37.834 21 51.501s31 20.5 51 20.5c20.667 0 37.834 -6.83301 51.501 -20.5s20.5 -30.834 20.5 -51.501
c0 -21.333 -6.83301 -38.666 -20.5 -51.999s-30.834 -20 -51.501 -20zM465 784c-20 0 -37 6.66699 -51 20s-21 30.666 -21 51.999c0 20.667 7 37.834 21 51.501s31 20.5 51 20.5c20.667 0 37.834 -6.83301 51.501 -20.5s20.5 -30.834 20.5 -51.501
c0 -21.333 -6.83301 -38.666 -20.5 -51.999s-30.834 -20 -51.501 -20z" />
    <glyph glyph-name="Zacute" unicode="&#x179;" horiz-adv-x="617" 
d="M21 0v99l386 475h-383v126h572v-99l-386 -475h390v-126h-579zM236 787l90 130h156l-135 -130h-111z" />
    <glyph glyph-name="zacute" unicode="&#x17a;" horiz-adv-x="499" 
d="M27 0v97l262 309h-260v115h435v-97l-262 -309h269v-115h-444zM164 608l90 130h156l-135 -130h-111z" />
    <glyph glyph-name="Zdotaccent" unicode="&#x17b;" horiz-adv-x="617" 
d="M21 0v99l386 475h-383v126h572v-99l-386 -475h390v-126h-579zM317 781c-21.333 0 -39.166 7 -53.499 21s-21.5 31.333 -21.5 52c0 20 7.16699 37 21.5 51s32.166 21 53.499 21s39.166 -7 53.499 -21s21.5 -31 21.5 -51c0 -20.667 -7.16699 -38 -21.5 -52
s-32.166 -21 -53.499 -21z" />
    <glyph glyph-name="zdotaccent" unicode="&#x17c;" horiz-adv-x="499" 
d="M27 0v97l262 309h-260v115h435v-97l-262 -309h269v-115h-444zM245 602c-21.333 0 -39.166 7 -53.499 21s-21.5 31.333 -21.5 52c0 20 7.16699 37 21.5 51s32.166 21 53.499 21s39.166 -7 53.499 -21s21.5 -31 21.5 -51c0 -20.667 -7.16699 -38 -21.5 -52
s-32.166 -21 -53.499 -21z" />
    <glyph glyph-name="Zcaron" unicode="&#x17d;" horiz-adv-x="617" 
d="M21 0v99l386 475h-383v126h572v-99l-386 -475h390v-126h-579zM245 920l73 -73l74 73h110l-115 -135h-140l-115 135h113z" />
    <glyph glyph-name="zcaron" unicode="&#x17e;" horiz-adv-x="499" 
d="M27 0v97l262 309h-260v115h435v-97l-262 -309h269v-115h-444zM173 741l73 -73l74 73h110l-115 -135h-140l-115 135h113z" />
    <glyph glyph-name="Scommaaccent" unicode="&#x218;" horiz-adv-x="631" 
d="M313 -10c-56.667 0 -112.001 10.501 -166.001 31.501s-102 50.833 -144 89.5l83 104c40.667 -36 79.834 -62 117.501 -78s77.5 -24 119.5 -24c29.333 0 54.666 3.5 75.999 10.5s37.833 17.167 49.5 30.5s17.5 29 17.5 47c0 24 -8.66699 42.5 -26 55.5
s-47 23.167 -89 30.5l-139 24c-59.333 10 -104.5 31 -135.5 63s-46.5 73.333 -46.5 124c0 43.333 11.167 81 33.5 113s54 56.5 95 73.5s89.833 25.5 146.5 25.5c51.333 0 102.5 -8.66699 153.5 -26s96.167 -41.333 135.5 -72l-78 -108c-73.333 56 -147 84 -221 84
c-26 0 -48.667 -3.33301 -68 -10s-34.166 -15.834 -44.499 -27.501s-15.5 -25.5 -15.5 -41.5c0 -21.333 7.66699 -37.833 23 -49.5s41 -20.5 77 -26.5l132 -22c70 -11.333 122.333 -33.5 157 -66.5s52 -76.5 52 -130.5c0 -45.333 -12 -84.833 -36 -118.5
s-58.167 -59.667 -102.5 -78s-96.5 -27.5 -156.5 -27.5zM193.999 -284.999l51 205h129l-81 -205h-99z" />
    <glyph glyph-name="scommaaccent" unicode="&#x219;" horiz-adv-x="491" 
d="M249 -10c-48 0 -92.333 6.16797 -133 18.501s-76 30.166 -106 53.499l68 91c30 -20 58.833 -35 86.5 -45s55.167 -15 82.5 -15c30.667 0 55.167 5.16699 73.5 15.5s27.5 23.833 27.5 40.5c0 13.333 -5.16699 24 -15.5 32s-26.833 13.667 -49.5 17l-100 15
c-52 8 -91.333 24.833 -118 50.5s-40 59.5 -40 101.5c0 34 8.83301 63.167 26.5 87.5s42.667 43.333 75 57s70.833 20.5 115.5 20.5c38 0 75.167 -5.33301 111.5 -16s70.5 -27 102.5 -49l-66 -89c-28.667 18 -56 31 -82 39s-52.333 12 -79 12
c-24.667 0 -44.5 -4.66699 -59.5 -14s-22.5 -21.666 -22.5 -36.999c0 -14 5.33301 -25 16 -33s29 -13.667 55 -17l99 -15c52 -7.33301 91.667 -23.833 119 -49.5s41 -58.834 41 -99.501c0 -33.333 -10 -62.833 -30 -88.5s-47 -46 -81 -61s-73 -22.5 -117 -22.5z
M134 -285.999l51 205h129l-81 -205h-99z" />
    <glyph glyph-name="uni021A" unicode="&#x21a;" horiz-adv-x="652" 
d="M254 0v572h-236v128h616v-128h-235v-572h-145zM211 -286l51 205h129l-81 -205h-99z" />
    <glyph glyph-name="uni021B" unicode="&#x21b;" horiz-adv-x="424" 
d="M301 -8c-58 0 -101.834 13.167 -131.501 39.5s-44.5 64.833 -44.5 115.5v260h-107v114h107v133l137 31v-164h149v-114h-149v-232c0 -24 5.33301 -41.167 16 -51.5s29.334 -15.5 56.001 -15.5c13.333 0 25.5 0.833008 36.5 2.5s23.167 4.83398 36.5 9.50098v-113
c-14 -4.66699 -31.5 -8.33398 -52.5 -11.001s-38.833 -4 -53.5 -4zM142.999 -286l51 205h129l-81 -205h-99z" />
    <glyph glyph-name="dotlessj" unicode="&#x237;" horiz-adv-x="244" 
d="M23 -214c-12.667 0 -25.668 0.832031 -39.001 2.49902s-24.333 3.83398 -33 6.50098v105c12.667 -2.66699 27.667 -4 45 -4c20 0 34.667 4.16699 44 12.5s14 21.833 14 40.5v572h137v-581c0 -48.667 -14.667 -86.5 -44 -113.5s-70.666 -40.5 -123.999 -40.5z" />
    <glyph glyph-name="uni02BB" unicode="&#x2bb;" horiz-adv-x="250" 
d="M235 741l-68 -263h-142l107 263h103z" />
    <glyph glyph-name="uni02BC" unicode="&#x2bc;" horiz-adv-x="250" 
d="M19 478l68 263h142l-107 -263h-103z" />
    <glyph glyph-name="circumflex" unicode="&#x2c6;" 
d="M372 605l-74 74l-73 -74h-110l115 136h140l115 -136h-113z" />
    <glyph glyph-name="caron" unicode="&#x2c7;" 
d="M228 741l73 -73l74 73h110l-115 -135h-140l-115 135h113z" />
    <glyph glyph-name="breve" unicode="&#x2d8;" 
d="M300 600c-45.333 0 -83.332 11.833 -113.999 35.5s-51 56.834 -61 99.501l84 22c16 -53.333 46.333 -80 91 -80c22.667 0 41.667 6.66699 57 20s26.666 33.333 33.999 60l84 -22c-10 -42.667 -30.333 -75.834 -61 -99.501s-68.667 -35.5 -114 -35.5z" />
    <glyph glyph-name="dotaccent" unicode="&#x2d9;" 
d="M300 602c-21.333 0 -39.166 7 -53.499 21s-21.5 31.333 -21.5 52c0 20 7.16699 37 21.5 51s32.166 21 53.499 21s39.166 -7 53.499 -21s21.5 -31 21.5 -51c0 -20.667 -7.16699 -38 -21.5 -52s-32.166 -21 -53.499 -21z" />
    <glyph glyph-name="ring" unicode="&#x2da;" 
d="M300 585c-22.667 0 -43.334 5.5 -62.001 16.5s-33.5 25.667 -44.5 44s-16.5 38.5 -16.5 60.5c0 21.333 5.5 41.166 16.5 59.499s25.833 33 44.5 44s39.334 16.5 62.001 16.5s43.334 -5.5 62.001 -16.5s33.5 -25.667 44.5 -44s16.5 -38.166 16.5 -59.499
c0 -22 -5.5 -42.167 -16.5 -60.5s-25.833 -33 -44.5 -44s-39.334 -16.5 -62.001 -16.5zM300 643c17.333 0 32.166 6 44.499 18s18.5 26.667 18.5 44c0 18 -6.16699 33 -18.5 45s-27.166 18 -44.499 18s-32.166 -6 -44.499 -18s-18.5 -27 -18.5 -45
c0 -17.333 6.16699 -32 18.5 -44s27.166 -18 44.499 -18z" />
    <glyph glyph-name="ogonek" unicode="&#x2db;" 
d="M301 -221c-31.333 0 -56.667 8.50098 -76 25.501s-29 39.167 -29 66.5c0 28 10 53.833 30 77.5s51.667 47.5 95 71.5l45 -20c-31.333 -18.667 -54.166 -36.334 -68.499 -53.001s-21.5 -34 -21.5 -52c0 -14 4.33301 -24.833 13 -32.5s21 -11.5 37 -11.5
c6.66699 0 13.5 1 20.5 3s13.167 5 18.5 9l19 -62c-10.667 -6.66699 -23.334 -12 -38.001 -16s-29.667 -6 -45 -6z" />
    <glyph glyph-name="tilde" unicode="&#x2dc;" 
d="M190 597l-84.001 18c18 80.667 56 121 114 121c18.667 0 36.834 -4.16699 54.501 -12.5s34.5 -16.666 50.5 -24.999s30 -12.5 42 -12.5c11.333 0 20.333 4 27 12s12.334 22 17.001 42l82 -18c-8 -41.333 -21.5 -72 -40.5 -92s-43.167 -30 -72.5 -30
c-18 0 -35.833 4.16699 -53.5 12.5s-34.5 16.666 -50.5 24.999s-30.667 12.5 -44 12.5c-10.667 0 -19.334 -4 -26.001 -12s-12 -21.667 -16 -41z" />
    <glyph glyph-name="hungarumlaut" unicode="&#x2dd;" 
d="M132 610l101 127h136l-132 -127h-105zM339 610l101 127h138l-142 -127h-97z" />
    <glyph glyph-name="uni0327" unicode="&#x327;" horiz-adv-x="0" 
d="M305 -236c-50 0 -91.668 15 -125.001 45l45 48c24.667 -19.333 50.667 -29 78 -29c17.333 0 30.833 3.5 40.5 10.5s14.5 16.167 14.5 27.5s-5 20.333 -15 27s-23.333 10 -40 10h-42l28 97h67l-14 -46c29.333 -2 52.5 -11 69.5 -27s25.5 -36.667 25.5 -62
c0 -28.667 -12.667 -52.667 -38 -72s-56.666 -29 -93.999 -29z" />
    <glyph glyph-name="uni0328" unicode="&#x328;" horiz-adv-x="0" 
d="M301 -221c-31.333 0 -56.667 8.50098 -76 25.501s-29 39.167 -29 66.5c0 28 10 53.833 30 77.5s51.667 47.5 95 71.5l45 -20c-31.333 -18.667 -54.166 -36.334 -68.499 -53.001s-21.5 -34 -21.5 -52c0 -14 4.33301 -24.833 13 -32.5s21 -11.5 37 -11.5
c6.66699 0 13.5 1 20.5 3s13.167 5 18.5 9l19 -62c-10.667 -6.66699 -23.334 -12 -38.001 -16s-29.667 -6 -45 -6z" />
    <glyph glyph-name="Wgrave" unicode="&#x1e80;" horiz-adv-x="944" 
d="M181 0l-155 700h149l95 -474l136 474h137l136 -473l95 473h144l-154 -700h-153l-138 488l-140 -488h-152zM429 787l-135 130h158l88 -130h-111z" />
    <glyph glyph-name="wgrave" unicode="&#x1e81;" horiz-adv-x="772" 
d="M153 0l-143 521h130l86 -336l104 336h115l103 -337l86 337h128l-144 -521h-131l-101 333l-101 -333h-132zM345 608l-135 130h158l88 -130h-111z" />
    <glyph glyph-name="Wacute" unicode="&#x1e82;" horiz-adv-x="944" 
d="M181 0l-155 700h149l95 -474l136 474h137l136 -473l95 473h144l-154 -700h-153l-138 488l-140 -488h-152zM389 787l90 130h156l-135 -130h-111z" />
    <glyph glyph-name="wacute" unicode="&#x1e83;" horiz-adv-x="772" 
d="M153 0l-143 521h130l86 -336l104 336h115l103 -337l86 337h128l-144 -521h-131l-101 333l-101 -333h-132zM305 608l90 130h156l-135 -130h-111z" />
    <glyph glyph-name="Wdieresis" unicode="&#x1e84;" horiz-adv-x="944" 
d="M181 0l-155 700h149l95 -474l136 474h137l136 -473l95 473h144l-154 -700h-153l-138 488l-140 -488h-152zM358 784c-20 0 -37 6.66699 -51 20s-21 30.666 -21 51.999c0 20.667 7 37.834 21 51.501s31 20.5 51 20.5c20.667 0 37.834 -6.83301 51.501 -20.5
s20.5 -30.834 20.5 -51.501c0 -21.333 -6.83301 -38.666 -20.5 -51.999s-30.834 -20 -51.501 -20zM582 784c-20 0 -37 6.66699 -51 20s-21 30.666 -21 51.999c0 20.667 7 37.834 21 51.501s31 20.5 51 20.5c20.667 0 37.834 -6.83301 51.501 -20.5
s20.5 -30.834 20.5 -51.501c0 -21.333 -6.83301 -38.666 -20.5 -51.999s-30.834 -20 -51.501 -20z" />
    <glyph glyph-name="wdieresis" unicode="&#x1e85;" horiz-adv-x="772" 
d="M153 0l-143 521h130l86 -336l104 336h115l103 -337l86 337h128l-144 -521h-131l-101 333l-101 -333h-132zM274 605c-20 0 -37 6.66699 -51 20s-21 30.666 -21 51.999c0 20.667 7 37.834 21 51.501s31 20.5 51 20.5c20.667 0 37.834 -6.83301 51.501 -20.5
s20.5 -30.834 20.5 -51.501c0 -21.333 -6.83301 -38.666 -20.5 -51.999s-30.834 -20 -51.501 -20zM498 605c-20 0 -37 6.66699 -51 20s-21 30.666 -21 51.999c0 20.667 7 37.834 21 51.501s31 20.5 51 20.5c20.667 0 37.834 -6.83301 51.501 -20.5
s20.5 -30.834 20.5 -51.501c0 -21.333 -6.83301 -38.666 -20.5 -51.999s-30.834 -20 -51.501 -20z" />
    <glyph glyph-name="Ygrave" unicode="&#x1ef2;" horiz-adv-x="706" 
d="M280 0v268l-286 432h167l196 -304l197 304h158l-287 -433v-267h-145zM312 787l-135 130h158l88 -130h-111z" />
    <glyph glyph-name="ygrave" unicode="&#x1ef3;" horiz-adv-x="577" 
d="M105 -215c-12 0 -23.5 0.499023 -34.5 1.49902s-20.167 2.16699 -27.5 3.5v118c13.333 -2.66699 29.333 -4 48 -4c50 0 84.667 23.667 104 71l8 20l-203 526h151l130 -355l147 355h148l-240 -563c-18 -42 -37.667 -75.667 -59 -101s-45.833 -43.666 -73.5 -54.999
s-60.5 -17 -98.5 -17zM245 607.999l-135 130h158l88 -130h-111z" />
    <glyph glyph-name="enspace" unicode="&#x2002;" horiz-adv-x="500" 
 />
    <glyph glyph-name="emspace" unicode="&#x2003;" horiz-adv-x="1000" 
 />
    <glyph glyph-name="thinspace" unicode="&#x2009;" horiz-adv-x="175" 
 />
    <glyph glyph-name="hairspace" unicode="&#x200a;" horiz-adv-x="100" 
 />
    <glyph glyph-name="zerowidthspace" unicode="&#x200b;" horiz-adv-x="0" 
 />
    <glyph glyph-name="endash" unicode="&#x2013;" horiz-adv-x="558" 
d="M41 227v116h476v-116h-476z" />
    <glyph glyph-name="emdash" unicode="&#x2014;" horiz-adv-x="708" 
d="M41 227v116h626v-116h-626z" />
    <glyph glyph-name="uni2015" unicode="&#x2015;" horiz-adv-x="958" 
d="M41 227v116h876v-116h-876z" />
    <glyph glyph-name="quoteleft" unicode="&#x2018;" horiz-adv-x="250" 
d="M235 741l-68 -263h-142l107 263h103z" />
    <glyph glyph-name="quoteright" unicode="&#x2019;" horiz-adv-x="250" 
d="M19 478l68 263h142l-107 -263h-103z" />
    <glyph glyph-name="quotesinglbase" unicode="&#x201a;" horiz-adv-x="250" 
d="M3 -151l68 263h142l-107 -263h-103z" />
    <glyph glyph-name="quotedblleft" unicode="&#x201c;" horiz-adv-x="442" 
d="M235 741l-68 -263h-142l107 263h103zM427 741l-68 -263h-142l107 263h103z" />
    <glyph glyph-name="quotedblright" unicode="&#x201d;" horiz-adv-x="442" 
d="M211 478l68 263h142l-107 -263h-103zM19 478l68 263h142l-107 -263h-103z" />
    <glyph glyph-name="quotedblbase" unicode="&#x201e;" horiz-adv-x="442" 
d="M195 -151l68 263h142l-107 -263h-103zM3 -151l68 263h142l-107 -263h-103z" />
    <glyph glyph-name="dagger" unicode="&#x2020;" horiz-adv-x="449" 
d="M169 0v413h-121v106h121v181h111v-181h121v-106h-121v-413h-111z" />
    <glyph glyph-name="daggerdbl" unicode="&#x2021;" horiz-adv-x="449" 
d="M169 0v181h-121v106h121v126h-121v106h121v181h111v-181h121v-106h-121v-126h121v-106h-121v-181h-111z" />
    <glyph glyph-name="bullet" unicode="&#x2022;" horiz-adv-x="355" 
d="M177 216c-21.333 0 -41 5.16699 -59 15.5s-32.167 24.166 -42.5 41.499s-15.5 36.666 -15.5 57.999c0 22 5.16699 41.667 15.5 59s24.5 31.333 42.5 42s37.667 16 59 16c22 0 41.833 -5.33301 59.5 -16s31.834 -24.667 42.501 -42s16 -37 16 -59
c0 -21.333 -5.33301 -40.666 -16 -57.999s-24.834 -31.166 -42.501 -41.499s-37.5 -15.5 -59.5 -15.5z" />
    <glyph glyph-name="ellipsis" unicode="&#x2026;" horiz-adv-x="707" 
d="M125 -10c-22 0 -41 8 -57 24s-24 35 -24 57c0 22.667 8 42 24 58s35 24 57 24s41 -8 57 -24s24 -35.333 24 -58c0 -22 -8 -41 -24 -57s-35 -24 -57 -24zM354 -10c-22 0 -41 8 -57 24s-24 35 -24 57c0 22.667 8 42 24 58s35 24 57 24s41 -8 57 -24s24 -35.333 24 -58
c0 -22 -8 -41 -24 -57s-35 -24 -57 -24zM582 -10c-22 0 -41 8 -57 24s-24 35 -24 57c0 22.667 8 42 24 58s35 24 57 24s41 -8 57 -24s24 -35.333 24 -58c0 -22 -8 -41 -24 -57s-35 -24 -57 -24z" />
    <glyph glyph-name="perthousand" unicode="&#x2030;" horiz-adv-x="1148" 
d="M182 345c-48.667 0 -87.499 16.5 -116.499 49.5s-43.5 76.833 -43.5 131.5c0 53.333 14.667 96.666 44 129.999s68 50 116 50c47.333 0 85.666 -16.667 114.999 -50s44 -76.666 44 -129.999c0 -54.667 -14.5 -98.5 -43.5 -131.5s-67.5 -49.5 -115.5 -49.5zM182.001 418
c24 0 42.834 9.5 56.501 28.5s20.5 45.5 20.5 79.5c0 32.667 -7 58.667 -21 78s-32.667 29 -56 29c-24 0 -42.833 -9.66699 -56.5 -29s-20.834 -45.333 -21.501 -78c0.666992 -34 7.66699 -60.5 21 -79.5s32.333 -28.5 57 -28.5zM143.002 0l396 700h102l-396 -700h-102z
M612.002 -5c-48.667 0 -87.499 16.5 -116.499 49.5s-43.5 76.833 -43.5 131.5c0 53.333 14.667 96.666 44 129.999s68 50 116 50c47.333 0 85.666 -16.667 114.999 -50s44 -76.666 44 -129.999c0 -54.667 -14.5 -98.5 -43.5 -131.5s-67.5 -49.5 -115.5 -49.5zM612.003 68
c24 0 42.834 9.5 56.501 28.5s20.5 45.5 20.5 79.5c0 32.667 -7 58.667 -21 78s-32.667 29 -56 29c-24 0 -42.833 -9.66699 -56.5 -29s-20.834 -45.333 -21.501 -78c0.666992 -34 7.66699 -60.5 21 -79.5s32.333 -28.5 57 -28.5zM967.004 -5
c-48.667 0 -87.499 16.5 -116.499 49.5s-43.5 76.833 -43.5 131.5c0 53.333 14.667 96.666 44 129.999s68 50 116 50c47.333 0 85.666 -16.667 114.999 -50s44 -76.666 44 -129.999c0 -54.667 -14.5 -98.5 -43.5 -131.5s-67.5 -49.5 -115.5 -49.5zM967.005 68
c24 0 42.834 9.5 56.501 28.5s20.5 45.5 20.5 79.5c0 32.667 -7 58.667 -21 78s-32.667 29 -56 29c-24 0 -42.833 -9.66699 -56.5 -29s-20.834 -45.333 -21.501 -78c0.666992 -34 7.66699 -60.5 21 -79.5s32.333 -28.5 57 -28.5z" />
    <glyph glyph-name="uni2032" unicode="&#x2032;" horiz-adv-x="250" 
d="M19 478l68 263h142l-107 -263h-103z" />
    <glyph glyph-name="uni2033" unicode="&#x2033;" horiz-adv-x="442" 
d="M211 478l68 263h142l-107 -263h-103zM19 478l68 263h142l-107 -263h-103z" />
    <glyph glyph-name="guilsinglleft" unicode="&#x2039;" horiz-adv-x="431" 
d="M261 0l-242 261l242 260h140l-236 -259l239 -262h-143z" />
    <glyph glyph-name="guilsinglright" unicode="&#x203a;" horiz-adv-x="431" 
d="M170 521l242 -261l-242 -260h-140l236 259l-239 262h143z" />
    <glyph glyph-name="fraction" unicode="&#x2044;" horiz-adv-x="577" 
d="M18 0l396 700h102l-396 -700h-102z" />
    <glyph glyph-name="uni2070" unicode="&#x2070;" horiz-adv-x="362" 
d="M182 345c-48.667 0 -87.499 16.5 -116.499 49.5s-43.5 76.833 -43.5 131.5c0 53.333 14.667 96.666 44 129.999s68 50 116 50c47.333 0 85.666 -16.667 114.999 -50s44 -76.666 44 -129.999c0 -54.667 -14.5 -98.5 -43.5 -131.5s-67.5 -49.5 -115.5 -49.5zM182.001 418
c24 0 42.834 9.5 56.501 28.5s20.5 45.5 20.5 79.5c0 32.667 -7 58.667 -21 78s-32.667 29 -56 29c-24 0 -42.833 -9.66699 -56.5 -29s-20.834 -45.333 -21.501 -78c0.666992 -34 7.66699 -60.5 21 -79.5s32.333 -28.5 57 -28.5z" />
    <glyph glyph-name="uni2074" unicode="&#x2074;" horiz-adv-x="356" 
d="M218 350v77h-197v68l183 205h98v-204h44v-69h-44v-77h-84zM116 496h102v113z" />
    <glyph glyph-name="uni2075" unicode="&#x2075;" horiz-adv-x="324" 
d="M153 344c-52 0 -96.333 15.667 -133 47l51 59c14.667 -12 28.5 -20.667 41.5 -26s27.5 -8 43.5 -8c19.333 0 34.333 4.33301 45 13s16 20 16 34c0 12.667 -5.83301 23.334 -17.5 32.001s-27.5 13 -47.5 13c-8.66699 0 -18 -1 -28 -3s-19.667 -5.33301 -29 -10l-56 17
l8 188h237v-71h-169l-3 -64c10 3.33301 19.833 5.66602 29.5 6.99902s19.5 2 29.5 2c40.667 0 73 -10.167 97 -30.5s36 -46.833 36 -79.5c0 -36 -13.833 -65 -41.5 -87s-64.167 -33 -109.5 -33z" />
    <glyph glyph-name="uni2076" unicode="&#x2076;" horiz-adv-x="338" 
d="M182 344c-48 0 -86.833 16.3311 -116.5 48.998s-44.5 75.334 -44.5 128.001c0 56 16.333 100.833 49 134.5s75.334 50.5 128.001 50.5c21.333 0 42.166 -3.5 62.499 -10.5s37.5 -16.5 51.5 -28.5l-50 -60c-10.667 9.33301 -21.5 15.833 -32.5 19.5s-23.833 5.5 -38.5 5.5
c-26 0 -46.333 -8.5 -61 -25.5s-23 -42.167 -25 -75.5c11.333 11.333 24.833 20.333 40.5 27s32.167 10 49.5 10c36 0 65.5 -10 88.5 -30s34.5 -45.667 34.5 -77c0 -33.333 -12.833 -61.166 -38.5 -83.499s-58.167 -33.5 -97.5 -33.5zM182 501.998
c-14 0 -26.833 -2.5 -38.5 -7.5s-22.167 -12.833 -31.5 -23.5c5.33301 -17.333 13.666 -30.833 24.999 -40.5s25 -14.5 41 -14.5c16.667 0 30.334 4 41.001 12s16 18.333 16 31s-4.83301 23 -14.5 31s-22.5 12 -38.5 12z" />
    <glyph glyph-name="uni2077" unicode="&#x2077;" horiz-adv-x="320" 
d="M60 350l151 277h-193v73h290v-62l-146 -288h-102z" />
    <glyph glyph-name="uni2078" unicode="&#x2078;" horiz-adv-x="336" 
d="M168 344c-43.333 0 -78.168 9.83301 -104.501 29.5s-39.5 45.167 -39.5 76.5c0 17.333 5 32.833 15 46.5s23 24.167 39 31.5c-13.333 8.66699 -24 19.5 -32 32.5s-12 27.167 -12 42.5c0 29.333 12.667 53.833 38 73.5s57 29.5 95 29.5
c38.667 0 70.834 -9.83301 96.501 -29.5s38.5 -44.167 38.5 -73.5c0 -15.333 -4 -29.5 -12 -42.5s-18.667 -23.833 -32 -32.5c16.667 -7.33301 29.834 -17.833 39.501 -31.5s14.5 -29.167 14.5 -46.5c0 -31.333 -13.333 -56.833 -40 -76.5s-61.334 -29.5 -104.001 -29.5z
M167.998 558c14.667 0 26.834 3.66699 36.501 11s14.5 16.666 14.5 27.999s-4.83301 20.833 -14.5 28.5s-21.834 11.5 -36.501 11.5s-26.834 -3.83301 -36.501 -11.5s-14.5 -17.167 -14.5 -28.5s4.83301 -20.666 14.5 -27.999s21.834 -11 36.501 -11zM167.998 414
c18 0 32.5 3.83301 43.5 11.5s16.5 17.5 16.5 29.5s-5.5 21.833 -16.5 29.5s-25.5 11.5 -43.5 11.5c-17.333 0 -31.5 -3.83301 -42.5 -11.5s-16.5 -17.5 -16.5 -29.5s5.5 -21.833 16.5 -29.5s25.167 -11.5 42.5 -11.5z" />
    <glyph glyph-name="uni2079" unicode="&#x2079;" horiz-adv-x="338" 
d="M156 706c48 0 87 -16.167 117 -48.5s45 -74.833 45 -127.5c0 -55.333 -16.333 -100.166 -49 -134.499s-75.667 -51.5 -129 -51.5c-20.667 0 -41.334 3.66699 -62.001 11s-37.667 17 -51 29l49 59c10.667 -8.66699 21.5 -15 32.5 -19s23.833 -6 38.5 -6
c26.667 0 47.167 8.66699 61.5 26s22.5 42.666 24.5 75.999c-11.333 -12 -24.666 -21.167 -39.999 -27.5s-32 -9.5 -50 -9.5c-36 0 -65.5 10 -88.5 30s-34.5 45.667 -34.5 77c0 33.333 12.833 61 38.5 83s58.167 33 97.5 33zM156 548c14 0 26.833 2.66699 38.5 8
s22.167 13 31.5 23c-5.33301 17.333 -13.666 31 -24.999 41s-25 15 -41 15c-16.667 0 -30.334 -4.16699 -41.001 -12.5s-16 -18.833 -16 -31.5s5 -23 15 -31s22.667 -12 38 -12z" />
    <glyph glyph-name="uni2080" unicode="&#x2080;" horiz-adv-x="362" 
d="M182 -5c-48.667 0 -87.499 16.5 -116.499 49.5s-43.5 76.833 -43.5 131.5c0 53.333 14.667 96.666 44 129.999s68 50 116 50c47.333 0 85.666 -16.667 114.999 -50s44 -76.666 44 -129.999c0 -54.667 -14.5 -98.5 -43.5 -131.5s-67.5 -49.5 -115.5 -49.5zM182.001 68
c24 0 42.834 9.5 56.501 28.5s20.5 45.5 20.5 79.5c0 32.667 -7 58.667 -21 78s-32.667 29 -56 29c-24 0 -42.833 -9.66699 -56.5 -29s-20.834 -45.333 -21.501 -78c0.666992 -34 7.66699 -60.5 21 -79.5s32.333 -28.5 57 -28.5z" />
    <glyph glyph-name="uni2081" unicode="&#x2081;" horiz-adv-x="195" 
d="M89 0v265l-73 -29v72l105 42h53v-350h-85z" />
    <glyph glyph-name="uni2082" unicode="&#x2082;" horiz-adv-x="307" 
d="M27 0l0.00195312 59.999l141 121c11.333 10.667 20 20.5 26 29.5s9 18.167 9 27.5c0 13.333 -5.16699 24.166 -15.5 32.499s-23.5 12.5 -39.5 12.5c-16.667 0 -32 -3.33301 -46 -10s-29.667 -17.667 -47 -33l-47 56c21.333 18.667 44.166 33 68.499 43
s49.166 15.333 74.499 16c39.333 -0.666992 71.5 -11.167 96.5 -31.5s37.5 -47.166 37.5 -80.499c0 -20 -5.16699 -38.667 -15.5 -56s-26.833 -35.666 -49.5 -54.999l-70 -62h138v-70h-261z" />
    <glyph glyph-name="uni2083" unicode="&#x2083;" horiz-adv-x="329" 
d="M159 -5c-28.667 0 -55.8281 5.00098 -81.4951 15.001s-46.5 24 -62.5 42l57 52c14 -14 27 -23.667 39 -29s27.667 -8 47 -8s34.5 3.66699 45.5 11s16.5 16.666 16.5 27.999c0 9.33301 -4.83301 16.833 -14.5 22.5s-23.167 8.5 -40.5 8.5h-33v67h24
c16.667 0 30 3.83301 40 11.5s15 17.5 15 29.5c0 11.333 -5 20.333 -15 27s-22.667 10 -38 10c-17.333 0 -31.833 -2.83301 -43.5 -8.5s-24.834 -16.167 -39.501 -31.5l-57 52c17.333 18.667 38.666 33.667 63.999 45s51.666 17 78.999 17c40 0 72.667 -9.33301 98 -28
s37.666 -43 36.999 -73c0.666992 -16.667 -3.33301 -32 -12 -46s-20.667 -25.667 -36 -35c18 -6.66699 32.167 -16.5 42.5 -29.5s15.5 -28.167 15.5 -45.5c0 -30.667 -13.833 -55.667 -41.5 -75s-62.834 -29 -105.501 -29z" />
    <glyph glyph-name="uni2084" unicode="&#x2084;" horiz-adv-x="356" 
d="M218 0v77h-197v68l183 205h98v-204h44v-69h-44v-77h-84zM116 146h102v113z" />
    <glyph glyph-name="uni2085" unicode="&#x2085;" horiz-adv-x="324" 
d="M153 -6c-52 0 -96.333 15.667 -133 47l51 59c14.667 -12 28.5 -20.667 41.5 -26s27.5 -8 43.5 -8c19.333 0 34.333 4.33301 45 13s16 20 16 34c0 12.667 -5.83301 23.334 -17.5 32.001s-27.5 13 -47.5 13c-8.66699 0 -18 -1 -28 -3s-19.667 -5.33301 -29 -10l-56 17
l8 188h237v-71h-169l-3 -64c10 3.33301 19.833 5.66602 29.5 6.99902s19.5 2 29.5 2c40.667 0 73 -10.167 97 -30.5s36 -46.833 36 -79.5c0 -36 -13.833 -65 -41.5 -87s-64.167 -33 -109.5 -33z" />
    <glyph glyph-name="uni2086" unicode="&#x2086;" horiz-adv-x="338" 
d="M182 -6c-48 0 -86.833 16.3311 -116.5 48.998s-44.5 75.334 -44.5 128.001c0 56 16.333 100.833 49 134.5s75.334 50.5 128.001 50.5c21.333 0 42.166 -3.5 62.499 -10.5s37.5 -16.5 51.5 -28.5l-50 -60c-10.667 9.33301 -21.5 15.833 -32.5 19.5s-23.833 5.5 -38.5 5.5
c-26 0 -46.333 -8.5 -61 -25.5s-23 -42.167 -25 -75.5c11.333 11.333 24.833 20.333 40.5 27s32.167 10 49.5 10c36 0 65.5 -10 88.5 -30s34.5 -45.667 34.5 -77c0 -33.333 -12.833 -61.166 -38.5 -83.499s-58.167 -33.5 -97.5 -33.5zM182 151.998
c-14 0 -26.833 -2.5 -38.5 -7.5s-22.167 -12.833 -31.5 -23.5c5.33301 -17.333 13.666 -30.833 24.999 -40.5s25 -14.5 41 -14.5c16.667 0 30.334 4 41.001 12s16 18.333 16 31s-4.83301 23 -14.5 31s-22.5 12 -38.5 12z" />
    <glyph glyph-name="uni2087" unicode="&#x2087;" horiz-adv-x="320" 
d="M60 0l151 277h-193v73h290v-62l-146 -288h-102z" />
    <glyph glyph-name="uni2088" unicode="&#x2088;" horiz-adv-x="336" 
d="M168 -6c-43.333 0 -78.168 9.83301 -104.501 29.5s-39.5 45.167 -39.5 76.5c0 17.333 5 32.833 15 46.5s23 24.167 39 31.5c-13.333 8.66699 -24 19.5 -32 32.5s-12 27.167 -12 42.5c0 29.333 12.667 53.833 38 73.5s57 29.5 95 29.5
c38.667 0 70.834 -9.83301 96.501 -29.5s38.5 -44.167 38.5 -73.5c0 -15.333 -4 -29.5 -12 -42.5s-18.667 -23.833 -32 -32.5c16.667 -7.33301 29.834 -17.833 39.501 -31.5s14.5 -29.167 14.5 -46.5c0 -31.333 -13.333 -56.833 -40 -76.5s-61.334 -29.5 -104.001 -29.5z
M167.998 208c14.667 0 26.834 3.66699 36.501 11s14.5 16.666 14.5 27.999s-4.83301 20.833 -14.5 28.5s-21.834 11.5 -36.501 11.5s-26.834 -3.83301 -36.501 -11.5s-14.5 -17.167 -14.5 -28.5s4.83301 -20.666 14.5 -27.999s21.834 -11 36.501 -11zM167.998 64
c18 0 32.5 3.83301 43.5 11.5s16.5 17.5 16.5 29.5s-5.5 21.833 -16.5 29.5s-25.5 11.5 -43.5 11.5c-17.333 0 -31.5 -3.83301 -42.5 -11.5s-16.5 -17.5 -16.5 -29.5s5.5 -21.833 16.5 -29.5s25.167 -11.5 42.5 -11.5z" />
    <glyph glyph-name="uni2089" unicode="&#x2089;" horiz-adv-x="338" 
d="M156 356c48 0 86.833 -16.3311 116.5 -48.998s44.5 -75.334 44.5 -128.001c0 -56 -16.333 -100.833 -49 -134.5s-75.334 -50.5 -128.001 -50.5c-21.333 0 -42.166 3.5 -62.499 10.5s-37.5 16.5 -51.5 28.5l50 60c10.667 -9.33301 21.5 -15.833 32.5 -19.5
s23.833 -5.5 38.5 -5.5c26 0 46.333 8.5 61 25.5s23 42.167 25 75.5c-11.333 -11.333 -24.833 -20.333 -40.5 -27s-32.167 -10 -49.5 -10c-36 0 -65.5 10 -88.5 30s-34.5 45.667 -34.5 77c0 33.333 12.833 61.166 38.5 83.499s58.167 33.5 97.5 33.5zM156 198.002
c14 0 26.833 2.5 38.5 7.5s22.167 12.833 31.5 23.5c-5.33301 17.333 -13.666 30.833 -24.999 40.5s-25 14.5 -41 14.5c-16.667 0 -30.334 -4 -41.001 -12s-16 -18.333 -16 -31s4.83301 -23 14.5 -31s22.5 -12 38.5 -12z" />
    <glyph glyph-name="Euro" unicode="&#x20ac;" horiz-adv-x="790" 
d="M472 -11c-58.667 0 -111.664 10.6699 -158.997 32.0029s-87.333 51.666 -120 90.999s-55.667 85 -69 137h-89v70h79c-0.666992 5.33301 -1.16699 10.5 -1.5 15.5s-0.5 10.167 -0.5 15.5s0.166992 10.666 0.5 15.999s0.833008 10.333 1.5 15h-79v71h90
c13.333 52 36.166 97.5 68.499 136.5s72.333 69.167 120 90.5s100.5 32 158.5 32c61.333 0 116.166 -10.833 164.499 -32.5s88.166 -53.834 119.499 -96.501l-93 -70c-19.333 28 -45.833 49.5 -79.5 64.5s-70.5 22.5 -110.5 22.5c-34.667 0 -66.167 -6 -94.5 -18
s-52.666 -29 -72.999 -51s-36.166 -48 -47.499 -78h256l-27 -71h-245c-0.666992 -4.66699 -1 -9.66699 -1 -15v-16v-15.5c0 -5 0.333008 -10.167 1 -15.5h223l-27 -70h-180c11.333 -30.667 27.166 -57 47.499 -79s44.5 -39 72.5 -51s59.333 -18 94 -18
c40 0 77.167 7.66699 111.5 23s61.166 36.333 80.499 63l91 -69c-32 -42 -72 -74 -120 -96s-102.333 -33 -163 -33z" />
    <glyph glyph-name="trademark" unicode="&#x2122;" horiz-adv-x="689" 
d="M328 421v279h85l73 -148l73 148h85v-279h-67l2 197l-93 -179l-95 178l1 -196h-64zM119 421v220h-93v59h257v-59h-93v-220h-71z" />
    <glyph glyph-name="uni2191" unicode="&#x2191;" horiz-adv-x="615" 
d="M243 0v514l-144 -179l-80 69l289 346l287 -345l-82 -72l-142 179v-512h-128z" />
    <glyph glyph-name="uni2193" unicode="&#x2193;" horiz-adv-x="615" 
d="M371 700v-514l144 179l80 -69l-289 -346l-287 345l82 72l142 -179v512h128z" />
    <glyph glyph-name="minus" unicode="&#x2212;" 
d="M83 307v103h434v-103h-434z" />
    <glyph glyph-name="uni2215" unicode="&#x2215;" horiz-adv-x="577" 
d="M19 0l396 700h100l-397 -700h-99z" />
    <glyph glyph-name="notequal" unicode="&#x2260;" 
d="M89 93l71 113h-77v103h139l56 88h-195v103h258l69 112h101l-69 -112h75v-103h-138l-55 -88h193v-103h-255l-71 -113h-102z" />
    <glyph glyph-name="fi" unicode="&#xfb01;" horiz-adv-x="672" 
d="M134 0l-0.00195312 406.999h-116v114h116v50c0 58.667 17 103.5 51 134.5s83 46.5 147 46.5c14 0 28.333 -0.666992 43 -2s27.334 -3.66602 38.001 -6.99902v-115c-12.667 2.66699 -23.667 4.66699 -33 6s-19.666 2 -30.999 2c-26 0 -45.5 -5.5 -58.5 -16.5
s-19.5 -28.167 -19.5 -51.5v-47h142v-114h-142v-407h-137zM484.998 -0.000976562v521h137v-521h-137zM552.998 582.999c-21.333 0 -39.666 7.66699 -54.999 23s-23 33.666 -23 54.999c0 22 7.66699 40.5 23 55.5s33.666 22.5 54.999 22.5c22 0 40.5 -7.5 55.5 -22.5
s22.5 -33.5 22.5 -55.5c0 -21.333 -7.5 -39.666 -22.5 -54.999s-33.5 -23 -55.5 -23z" />
    <glyph glyph-name="fl" unicode="&#xfb02;" horiz-adv-x="672" 
d="M134 0l-0.00195312 406.999h-116v114h116v50c0 58.667 17 103.5 51 134.5s83 46.5 147 46.5c14 0 28.333 -0.666992 43 -2s27.334 -3.66602 38.001 -6.99902v-115c-12.667 2.66699 -23.667 4.66699 -33 6s-19.666 2 -30.999 2c-26 0 -45.5 -5.5 -58.5 -16.5
s-19.5 -28.167 -19.5 -51.5v-47h142v-114h-142v-407h-137zM484.998 -0.000976562v700l137 23v-723h-137z" />
    <glyph glyph-name="uniFEFF" unicode="&#xfeff;" horiz-adv-x="0" 
 />
    <glyph glyph-name="uniFFFD" unicode="&#xfffd;" horiz-adv-x="538" 
d="M72 -100v850h394v-850h-394z" />
    <glyph glyph-name="NULL" horiz-adv-x="201" 
 />
    <glyph glyph-name="CR" horiz-adv-x="201" 
 />
    <glyph glyph-name="idotaccent" horiz-adv-x="241" 
d="M54 0v521h137v-521h-137zM122 583c-21.333 0 -39.666 7.66699 -54.999 23s-23 33.666 -23 54.999c0 22 7.66699 40.5 23 55.5s33.666 22.5 54.999 22.5c22 0 40.5 -7.5 55.5 -22.5s22.5 -33.5 22.5 -55.5c0 -21.333 -7.5 -39.666 -22.5 -54.999s-33.5 -23 -55.5 -23z" />
    <glyph glyph-name="a.school" horiz-adv-x="631" 
d="M295 -7c-49.333 0 -94.001 12 -134.001 36s-71.833 56.167 -95.5 96.5s-35.5 85.5 -35.5 135.5s11.833 95.167 35.5 135.5s55.834 72.333 96.501 96s86.334 35.5 137.001 35.5c25.333 0 50.166 -3.5 74.499 -10.5s46.833 -17.167 67.5 -30.5v34h137v-521h-135v43
c-42.667 -33.333 -92 -50 -148 -50zM316.999 110c25.333 0 48.499 4.16797 69.499 12.501s39.167 20.833 54.5 37.5v203c-15.333 15.333 -33.666 27.333 -54.999 36s-44.333 13 -69 13c-28.667 0 -54.5 -6.5 -77.5 -19.5s-41.167 -31 -54.5 -54s-20 -48.833 -20 -77.5
s6.66699 -54.334 20 -77.001s31.5 -40.667 54.5 -54s48.833 -20 77.5 -20z" />
    <glyph glyph-name="aacute.school" horiz-adv-x="631" 
d="M295 -7c-49.333 0 -94.001 12 -134.001 36s-71.833 56.167 -95.5 96.5s-35.5 85.5 -35.5 135.5s11.833 95.167 35.5 135.5s55.834 72.333 96.501 96s86.334 35.5 137.001 35.5c25.333 0 50.166 -3.5 74.499 -10.5s46.833 -17.167 67.5 -30.5v34h137v-521h-135v43
c-42.667 -33.333 -92 -50 -148 -50zM316.999 110c25.333 0 48.499 4.16797 69.499 12.501s39.167 20.833 54.5 37.5v203c-15.333 15.333 -33.666 27.333 -54.999 36s-44.333 13 -69 13c-28.667 0 -54.5 -6.5 -77.5 -19.5s-41.167 -31 -54.5 -54s-20 -48.833 -20 -77.5
s6.66699 -54.334 20 -77.001s31.5 -40.667 54.5 -54s48.833 -20 77.5 -20zM233.998 608.001l90 130h156l-135 -130h-111z" />
    <glyph glyph-name="abreve.school" horiz-adv-x="631" 
d="M295 -7c-49.333 0 -94.001 12 -134.001 36s-71.833 56.167 -95.5 96.5s-35.5 85.5 -35.5 135.5s11.833 95.167 35.5 135.5s55.834 72.333 96.501 96s86.334 35.5 137.001 35.5c25.333 0 50.166 -3.5 74.499 -10.5s46.833 -17.167 67.5 -30.5v34h137v-521h-135v43
c-42.667 -33.333 -92 -50 -148 -50zM316.999 110c25.333 0 48.499 4.16797 69.499 12.501s39.167 20.833 54.5 37.5v203c-15.333 15.333 -33.666 27.333 -54.999 36s-44.333 13 -69 13c-28.667 0 -54.5 -6.5 -77.5 -19.5s-41.167 -31 -54.5 -54s-20 -48.833 -20 -77.5
s6.66699 -54.334 20 -77.001s31.5 -40.667 54.5 -54s48.833 -20 77.5 -20zM314.998 600.001c-45.333 0 -83.332 11.833 -113.999 35.5s-51 56.834 -61 99.501l84 22c16 -53.333 46.333 -80 91 -80c22.667 0 41.667 6.66699 57 20s26.666 33.333 33.999 60l84 -22
c-10 -42.667 -30.333 -75.834 -61 -99.501s-68.667 -35.5 -114 -35.5z" />
    <glyph glyph-name="acircumflex.school" horiz-adv-x="631" 
d="M295 -7c-49.333 0 -94.001 12 -134.001 36s-71.833 56.167 -95.5 96.5s-35.5 85.5 -35.5 135.5s11.833 95.167 35.5 135.5s55.834 72.333 96.501 96s86.334 35.5 137.001 35.5c25.333 0 50.166 -3.5 74.499 -10.5s46.833 -17.167 67.5 -30.5v34h137v-521h-135v43
c-42.667 -33.333 -92 -50 -148 -50zM316.999 110c25.333 0 48.499 4.16797 69.499 12.501s39.167 20.833 54.5 37.5v203c-15.333 15.333 -33.666 27.333 -54.999 36s-44.333 13 -69 13c-28.667 0 -54.5 -6.5 -77.5 -19.5s-41.167 -31 -54.5 -54s-20 -48.833 -20 -77.5
s6.66699 -54.334 20 -77.001s31.5 -40.667 54.5 -54s48.833 -20 77.5 -20zM386.998 605.001l-74 74l-73 -74h-110l115 136h140l115 -136h-113z" />
    <glyph glyph-name="adieresis.school" horiz-adv-x="631" 
d="M295 -7c-49.333 0 -94.001 12 -134.001 36s-71.833 56.167 -95.5 96.5s-35.5 85.5 -35.5 135.5s11.833 95.167 35.5 135.5s55.834 72.333 96.501 96s86.334 35.5 137.001 35.5c25.333 0 50.166 -3.5 74.499 -10.5s46.833 -17.167 67.5 -30.5v34h137v-521h-135v43
c-42.667 -33.333 -92 -50 -148 -50zM316.999 110c25.333 0 48.499 4.16797 69.499 12.501s39.167 20.833 54.5 37.5v203c-15.333 15.333 -33.666 27.333 -54.999 36s-44.333 13 -69 13c-28.667 0 -54.5 -6.5 -77.5 -19.5s-41.167 -31 -54.5 -54s-20 -48.833 -20 -77.5
s6.66699 -54.334 20 -77.001s31.5 -40.667 54.5 -54s48.833 -20 77.5 -20zM202.998 605.001c-20 0 -37 6.66699 -51 20s-21 30.666 -21 51.999c0 20.667 7 37.834 21 51.501s31 20.5 51 20.5c20.667 0 37.834 -6.83301 51.501 -20.5s20.5 -30.834 20.5 -51.501
c0 -21.333 -6.83301 -38.666 -20.5 -51.999s-30.834 -20 -51.501 -20zM426.998 605.001c-20 0 -37 6.66699 -51 20s-21 30.666 -21 51.999c0 20.667 7 37.834 21 51.501s31 20.5 51 20.5c20.667 0 37.834 -6.83301 51.501 -20.5s20.5 -30.834 20.5 -51.501
c0 -21.333 -6.83301 -38.666 -20.5 -51.999s-30.834 -20 -51.501 -20z" />
    <glyph glyph-name="agrave.school" horiz-adv-x="631" 
d="M295 -7c-49.333 0 -94.001 12 -134.001 36s-71.833 56.167 -95.5 96.5s-35.5 85.5 -35.5 135.5s11.833 95.167 35.5 135.5s55.834 72.333 96.501 96s86.334 35.5 137.001 35.5c25.333 0 50.166 -3.5 74.499 -10.5s46.833 -17.167 67.5 -30.5v34h137v-521h-135v43
c-42.667 -33.333 -92 -50 -148 -50zM316.999 110c25.333 0 48.499 4.16797 69.499 12.501s39.167 20.833 54.5 37.5v203c-15.333 15.333 -33.666 27.333 -54.999 36s-44.333 13 -69 13c-28.667 0 -54.5 -6.5 -77.5 -19.5s-41.167 -31 -54.5 -54s-20 -48.833 -20 -77.5
s6.66699 -54.334 20 -77.001s31.5 -40.667 54.5 -54s48.833 -20 77.5 -20zM273.998 608.001l-135 130h158l88 -130h-111z" />
    <glyph glyph-name="amacron.school" horiz-adv-x="631" 
d="M295 -7c-49.333 0 -94.001 12 -134.001 36s-71.833 56.167 -95.5 96.5s-35.5 85.5 -35.5 135.5s11.833 95.167 35.5 135.5s55.834 72.333 96.501 96s86.334 35.5 137.001 35.5c25.333 0 50.166 -3.5 74.499 -10.5s46.833 -17.167 67.5 -30.5v34h137v-521h-135v43
c-42.667 -33.333 -92 -50 -148 -50zM316.999 110c25.333 0 48.499 4.16797 69.499 12.501s39.167 20.833 54.5 37.5v203c-15.333 15.333 -33.666 27.333 -54.999 36s-44.333 13 -69 13c-28.667 0 -54.5 -6.5 -77.5 -19.5s-41.167 -31 -54.5 -54s-20 -48.833 -20 -77.5
s6.66699 -54.334 20 -77.001s31.5 -40.667 54.5 -54s48.833 -20 77.5 -20zM154.998 625.001v86h320v-86h-320z" />
    <glyph glyph-name="aogonek.school" horiz-adv-x="631" 
d="M513 -221c-32 0 -57.501 8.50098 -76.501 25.501s-28.5 39.167 -28.5 66.5c0 24 7.16699 46.5 21.5 67.5s37.166 41.5 68.499 61.5h-55v43c-42.667 -33.333 -92 -50 -148 -50c-49.333 0 -94 12 -134 36s-71.833 56.167 -95.5 96.5s-35.5 85.5 -35.5 135.5
s11.833 95.167 35.5 135.5s55.834 72.333 96.501 96s86.334 35.5 137.001 35.5c26 0 51 -3.5 75 -10.5s46.333 -17.167 67 -30.5v34h137v-521c-31.333 -18.667 -54.166 -36.334 -68.499 -53.001s-21.5 -34 -21.5 -52c0 -14 4.33301 -24.833 13 -32.5s21 -11.5 37 -11.5
c6.66699 0 13.5 1 20.5 3s13.167 5 18.5 9l19 -62c-10.667 -6.66699 -23.334 -12 -38.001 -16s-29.667 -6 -45 -6zM164.999 261.001c0 -28.667 6.66602 -54.333 19.999 -77s31.5 -40.667 54.5 -54s48.833 -20 77.5 -20c25.333 0 48.5 4.16699 69.5 12.5
s39.167 20.833 54.5 37.5v203c-15.333 15.333 -33.666 27.333 -54.999 36s-44.333 13 -69 13c-28.667 0 -54.5 -6.5 -77.5 -19.5s-41.167 -31 -54.5 -54s-20 -48.833 -20 -77.5z" />
    <glyph glyph-name="aring.school" horiz-adv-x="631" 
d="M295 -7c-49.333 0 -94.001 12 -134.001 36s-71.833 56.167 -95.5 96.5s-35.5 85.5 -35.5 135.5s11.833 95.167 35.5 135.5s55.834 72.333 96.501 96s86.334 35.5 137.001 35.5c25.333 0 50.166 -3.5 74.499 -10.5s46.833 -17.167 67.5 -30.5v34h137v-521h-135v43
c-42.667 -33.333 -92 -50 -148 -50zM316.999 110c25.333 0 48.499 4.16797 69.499 12.501s39.167 20.833 54.5 37.5v203c-15.333 15.333 -33.666 27.333 -54.999 36s-44.333 13 -69 13c-28.667 0 -54.5 -6.5 -77.5 -19.5s-41.167 -31 -54.5 -54s-20 -48.833 -20 -77.5
s6.66699 -54.334 20 -77.001s31.5 -40.667 54.5 -54s48.833 -20 77.5 -20zM314.998 585.001c-22.667 0 -43.334 5.5 -62.001 16.5s-33.5 25.667 -44.5 44s-16.5 38.5 -16.5 60.5c0 21.333 5.5 41.166 16.5 59.499s25.833 33 44.5 44s39.334 16.5 62.001 16.5
s43.334 -5.5 62.001 -16.5s33.5 -25.667 44.5 -44s16.5 -38.166 16.5 -59.499c0 -22 -5.5 -42.167 -16.5 -60.5s-25.833 -33 -44.5 -44s-39.334 -16.5 -62.001 -16.5zM314.998 643.001c17.333 0 32.166 6 44.499 18s18.5 26.667 18.5 44c0 18 -6.16699 33 -18.5 45
s-27.166 18 -44.499 18s-32.166 -6 -44.499 -18s-18.5 -27 -18.5 -45c0 -17.333 6.16699 -32 18.5 -44s27.166 -18 44.499 -18z" />
    <glyph glyph-name="atilde.school" horiz-adv-x="631" 
d="M295 -7c-49.333 0 -94.001 12 -134.001 36s-71.833 56.167 -95.5 96.5s-35.5 85.5 -35.5 135.5s11.833 95.167 35.5 135.5s55.834 72.333 96.501 96s86.334 35.5 137.001 35.5c25.333 0 50.166 -3.5 74.499 -10.5s46.833 -17.167 67.5 -30.5v34h137v-521h-135v43
c-42.667 -33.333 -92 -50 -148 -50zM316.999 110c25.333 0 48.499 4.16797 69.499 12.501s39.167 20.833 54.5 37.5v203c-15.333 15.333 -33.666 27.333 -54.999 36s-44.333 13 -69 13c-28.667 0 -54.5 -6.5 -77.5 -19.5s-41.167 -31 -54.5 -54s-20 -48.833 -20 -77.5
s6.66699 -54.334 20 -77.001s31.5 -40.667 54.5 -54s48.833 -20 77.5 -20zM204.998 597.001l-84.001 18c18 80.667 56 121 114 121c18.667 0 36.834 -4.16699 54.501 -12.5s34.5 -16.666 50.5 -24.999s30 -12.5 42 -12.5c11.333 0 20.333 4 27 12s12.334 22 17.001 42
l82 -18c-8 -41.333 -21.5 -72 -40.5 -92s-43.167 -30 -72.5 -30c-18 0 -35.833 4.16699 -53.5 12.5s-34.5 16.666 -50.5 24.999s-30.667 12.5 -44 12.5c-10.667 0 -19.334 -4 -26.001 -12s-12 -21.667 -16 -41z" />
    </font>
</defs>
</svg>
